Статистика раздачи
Размер:  4,1 GB   |    Зарегистрирован:  6 месяцев 26 дней   |    Скачан:  0 раз

Полного источника не было: Никогда

   
 

Гость ®

Пол:
Не указан

Детство Шелдона | Молодой Шелдон | Young Sheldon- Год выпуска: 2018
Страна: США
Жанр: Комедия
Продолжительность: ~ 00:20:00-Перевод: Профессиональный (одноголосый закадровый) | Кураж-Бамбей-Режиссёр: Джаффар Махмуд, Ховард Дойч, Марк Сендроуски-В ролях: Иэн Армитедж, Зои Перри, Лэнс Барбер, Монтана Джордан, Реган Реворд, Джим Парсонс, Энни Поттс, Даниэль Пиннок, Док Фэрроу, Валери Махаффей, Брайан Степанек, Уайатт МакКлюр, Мэтт Хобби, Сара Бэйкер, Бриэль Барбаска, Боб Ньюхарт, Рэй Лиотта, Дж. Энтони МакКарти, Илон Маск, Шэрон Фергюсон, Джейсон Кравиц и др.-Описание: История о непростом детстве вундеркинда Шелдона Купера. Родители юного гения не разделяют увлечения сына наукой: его мать очень религиозна, а отец, бывший футбольный тренер, предпочитает проводить вечера в компании пива и телевизора. Со сверстниками тоже не ладится, ведь Шелдона куда больше детских игрушек интересует, где можно взять обогащённый уран для научных экспериментов.- -[box=#aed8ff,#003465]Ссылка на предыдущие и альтернативные раздачи[/box]-Исходник: WEB-DL 1080p
Качество: WEB-DLRip
Формат: AVI
Видео: XviD, 720x400 (16:9), 23,976 кадров/сек , ~1500 Кбит/сек
Аудио Rus: MP3, 48 kHz, 2 ch, 128 Кбит/сек | Кураж-Бамбей
Аудио Eng: MP3, 48 kHz, 2 ch, 128 Кбит/сек
Субтитры: Отсутствуют
Реклама: Отсутствует
С 12 серии частота кадров 24 fps-

Список серий

01. A High-Pitched Buzz and Training Wheels
02. A Rival Prodigy and Sir Isaac Neutron
03. A Crisis of Faith and Octopus Aliens
04. A Financial Secret and Fish Sauce
05. A Research Study and Czechoslovakian Wedding Pastries
06. Seven Deadly Sins and a Small Carl Sagan
07. Carbon Dating and a Stuffed Raccoon
08. An 8-Bit Princess and a Flat Tire Genius
09. Family Dynamics and a Red Fiero
10. A Stunted Childhood and a Can of Fancy Mixed Nuts
11. A Race of Superhumans and a Letter to Alf
12. A Tummy Ache and a Whale of a Metaphor
13. A Nuclear Reactor and a Boy Called Lovey
14. David, Goliath and a Yoo-hoo from the Back
15. A Math Emergency and Perky Palms
16. A Loaf of Bread and a Grand Old Flag
17. Albert Einstein and the Story of Another Mary
-

MediaInfo

Общее
Полное имя : E:\Young Sheldon (Season 2) WEB-DLRip\Young.Sheldon.s02e01.WEB-DLRip.[Wentworth_Miller].avi
Формат : AVI
Формат/Информация : Audio Video Interleave
Размер файла : 245 Мбайт
Продолжительность : 19 м. 22 с.
Общий поток : 1770 Кбит/сек
Программа кодирования : VirtualDubMod 1.5.10.2 (build 2540/release)
Библиотека кодирования : VirtualDubMod build 2540/release
Видео
Идентификатор : 0
Формат : MPEG-4 Visual
Профиль формата : Advanced Simple@L5
Настройки формата : BVOP1
Параметр BVOP формата : 1
Параметр QPel формата : Нет
Параметр GMC формата : Без точки перехода
Параметр матрицы формата : Default (MPEG)
Идентификатор кодека : XVID
Идентификатор кодека/Подсказка : XviD
Продолжительность : 19 м. 22 с.
Битрейт : 1500 Кбит/сек
Ширина : 720 пикселей
Высота : 400 пикселей
Соотношение сторон : 16:9
Частота кадров : 23,976 (24000/1001) кадра/сек
Цветовое пространство : YUV
Субдискретизация насыщенности : 4:2:0
Битовая глубина : 8 бит
Тип развёртки : Прогрессивная
Метод сжатия : С потерями
Бит/(Пиксели*Кадры) : 0.217
Размер потока : 208 Мбайт (85%)
Библиотека кодирования : XviD 61
Аудио #1
Идентификатор : 1
Формат : MPEG Audio
Версия формата : Version 1
Профиль формата : Layer 3
Идентификатор кодека : 55
Идентификатор кодека/Подсказка : MP3
Продолжительность : 19 м. 22 с.
Вид битрейта : Постоянный
Битрейт : 128 Кбит/сек
Каналы : 2 канала
Частота : 48,0 КГц
Частота кадров : 41,667 кадра/сек (1152 SPF)
Метод сжатия : С потерями
Размер потока : 17,7 Мбайт (7%)
Выравнивание : Соединение по промежуткам
Продолжительность промежутка : 42 мс. (1,00 видеокадр)
Время предзагрузки промежутка : 504 мс.
Библиотека кодирования : LAME3.98r
Настройки программы : -m s -V 4 -q 2 -lowpass 17 -b 128
Аудио #2
Идентификатор : 2
Формат : MPEG Audio
Версия формата : Version 1
Профиль формата : Layer 3
Настройки формата : Joint stereo / MS Stereo
Идентификатор кодека : 55
Идентификатор кодека/Подсказка : MP3
Продолжительность : 19 м. 22 с.
Вид битрейта : Постоянный
Битрейт : 128 Кбит/сек
Каналы : 2 канала
Частота : 48,0 КГц
Метод сжатия : С потерями
Размер потока : 17,7 Мбайт (7%)
Выравнивание : Соединение по промежуткам
Продолжительность промежутка : 42 мс. (1,00 видеокадр)
Время предзагрузки промежутка : 504 мс.
Библиотека кодирования : LAME3.97
-

Скриншоты

-

Внимание! Раздача ведётся путём добавления новых серий

Внимание! Раздача ведётся путём добавления новых серий; при каждом добавлении создаётся новый торрент. Чтобы начать докачку новой серии, пользователям необходимо сделать следующее:
(1) остановить скачивание,
(2) удалить старый торрент у себя из клиента (старые серии удалять не надо),
(3) скачать новый торрент и запустить его у себя в клиенте вместо старого, при этом указать клиенту путь в старую папку куда и должно происходить скачивание новых серий.
Ваш клиент при этом должен произвести хеширование (проверку) старой папки (если не производит сам - помогите ему сделать это), и будет докачивать только те серии которых у вас ещё нет. Старые серии при этом не удаляются, а продолжают раздаваться!
Eсли вы уже удалили старые серии, то предотвратить повторную закачку старых серий можно, отжав галочку в соответствующих местах при запуске нового торрента. По возможности, желательно не удалять старые серии как можно дольше чтобы релизёр не столько продолжал раздавать старые серии, а смог сконцентрироваться на новых.
[cybertorrent.ru].t1452.torrent 
Торрент: Зарегистрирован [ 2019-03-26 15:55 ] · 3F77CFB74B91A5C0CFED1A2C262D5B8D44E9322B

Скачать .torrent

Скачать

22 KB

Статус: проверено
Скачан: 0 раз
Размер: 4,1 GB
terms.php
Показать сообщения:    

Текущее время: 22-Окт 08:20

Часовой пояс: UTC ± 0



Вы не можете начинать темы
Вы не можете отвечать на сообщения
Вы не можете редактировать свои сообщения
Вы не можете удалять свои сообщения
Вы не можете голосовать в опросах
Вы не можете прикреплять файлы к сообщениям
Вы можете скачивать файлы