Статистика раздачи
Размер:  8,83 GB   |    Зарегистрирован:  5 месяцев 5 дней   |    Скачан:  0 раз

Полного источника не было: Никогда

Личеров:  3  [  0 KB/s  ]  
 
   
 
 

AleXa ®

Пол:
Не указан
Стаж:
5 месяцев 5 дней
Сообщений:
51

Футурама / Futurama- Страна: США
Жанр: Комедия, Фантастика, Мультипликация
Продолжительность: ~00:21:39
Год выпуска: 2011
Перевод:
  • Профессиональный (многоголосый закадровый) - VO-Production
  • Субтитры (ISFF)
  • Субтитры (Notabenoid)
    Русские субтитры: есть
    Режиссёр: Мэтт Гроенинг
    Роли озвучивали: Билли Уэст, Кейти Сэгал, Джон ДиМаджио, Фил ЛаМарр, Лоурэн Том...
    Описание: Сериал начинается с того, что разносчик пиццы из Нью-Йорка Филипп Джей Фрай случайно, как это кажется на первый взгляд, был заморожен в криогенной камере ровно в 00 часов 00 минут 00 секунд 1 января 2000 года. Он был разморожен тысячу лет спустя, 31 декабря 2999 года, и обнаружил себя в городе будущего Нью-Нью-Йорке. Знакомясь со своей будущей коллегой Турангой Лилой, Фрай пытается избежать принудительного назначения на работу курьером, кем он и был в прошлой жизни, и внедрения ему карьерного чипа — микросхемы, вшиваемой под кожу и определяющей род занятий своего носителя. Лила, в это время работающая инспектором по раздаче профессий, догоняя Фрая, чтобы вживить ему чип, в результате выслушивания речей Фрая о его прошлой никчемной жизни курьером, отказывается от работы инспектора, которая ей не по душе, и вместе они находят очень дальнего потомка Фрая (его пра-пра-пра-…-пра-внучатого племянника) Хьюберта Фарнсворта — маразматичного 160-летнего гениального ученого-склеротика, который берет их на работу в свою небольшую компанию «Межпланетный экспресс», занимающуюся межгалактическими грузоперевозками, на должность курьера. «Межпланетный экспресс» — это маленький бизнес профессора, окупающий его гениальные, но иногда весьма сомнительные исследования и изобретения.
    Список серий:
    14 Neutopia
    15 Benderama
    16 Ghost in the Machines
    17 Law & Oracle
    18 The Silence of the Clamps
    19 Yo Leela Leela
    20 All the Presidents' Heads
    21 Mobius Dick
    22 Fry am the Egg Man
    23 The Tip of the Zoidberg
    24 Cold Warriors
    25 Overclockwise
    26 Reincarnation
    Ссылка на предыдущие и альтернативные раздачи: http://cybertorrent.ru/tracker.php?nm=Futurama
    Качество: WEB-DL 720p
    Формат: MKV
    Видео: AVC 1280 X 720 / 23.976 fps / ~3650kbps
    Аудио: AC3 2.0 / 256 kbps / 16bit/48KHz - VO-Production
    Аудио 2: AC3 5.1 / 384 kbps / 16bit/48 KHz - Original
    Субтитры: Русские (2 варианта), Английские

    Подробные технические данные

    General
    Unique ID : 245283033464608586799744642552952357156 (0xB887CB3D0727B78399982E6F10B98124)
    Complete name : D:\Видео\Мультсериалы\Futurama\Season 6 [VO-Production + Original + SUB]\S06E14 Neutopia [WEB-DL 720p].mkv
    Format : Matroska
    File size : 679 MiB
    Duration : 21mn 39s
    Overall bit rate : 4 380 Kbps
    Movie name : Релиз Black Evil Bear
    Encoded date : UTC 2011-06-29 11:03:27
    Writing application : mkvmerge v4.0.0 ('The Stars were mine') сборка от Jun 6 2010 16:18:42
    Writing library : libebml v1.0.0 + libmatroska v1.0.0
    Video
    ID : 1
    Format : AVC
    Format/Info : Advanced Video Codec
    Format profile : High@L3.1
    Format settings, CABAC : No
    Format settings, ReFrames : 2 frames
    Format settings, GOP : M=2, N=47
    Codec ID : V_MPEG4/ISO/AVC
    Duration : 21mn 39s
    Bit rate : 3 653 Kbps
    Width : 1 280 pixels
    Height : 720 pixels
    Display aspect ratio : 16:9
    Frame rate : 23.976 fps
    Color space : YUV
    Chroma subsampling : 4:2:0
    Bit depth : 8 bits
    Scan type : Progressive
    Bits/(Pixel*Frame) : 0.165
    Stream size : 566 MiB (83%)
    Title : S06E14 Neutopia
    Language : English
    Color primaries : BT.709-5, BT.1361, IEC 61966-2-4, SMPTE RP177
    Transfer characteristics : BT.709-5, BT.1361
    Matrix coefficients : BT.709-5, BT.1361, IEC 61966-2-4 709, SMPTE RP177
    Audio #1
    ID : 2
    Format : AC-3
    Format/Info : Audio Coding 3
    Mode extension : CM (complete main)
    Codec ID : A_AC3
    Duration : 21mn 39s
    Bit rate mode : Constant
    Bit rate : 256 Kbps
    Channel(s) : 2 channels
    Channel positions : Front: L R
    Sampling rate : 48.0 KHz
    Bit depth : 16 bits
    Compression mode : Lossy
    Stream size : 39.7 MiB (6%)
    Title : AC3 2.0 256 kbps [Vo-Production]
    Language : Russian
    Audio #2
    ID : 3
    Format : AC-3
    Format/Info : Audio Coding 3
    Mode extension : CM (complete main)
    Codec ID : A_AC3
    Duration : 21mn 39s
    Bit rate mode : Constant
    Bit rate : 384 Kbps
    Channel(s) : 6 channels
    Channel positions : Front: L C R, Side: L R, LFE
    Sampling rate : 48.0 KHz
    Bit depth : 16 bits
    Compression mode : Lossy
    Stream size : 59.5 MiB (9%)
    Title : AC3 5.1 384 kbps [Original]
    Language : English
    Text #1
    ID : 4
    Format : UTF-8
    Codec ID : S_TEXT/UTF8
    Codec ID/Info : UTF-8 Plain Text
    Title : UTF-8 [RUS by ISFF]
    Text #2
    ID : 5
    Format : UTF-8
    Codec ID : S_TEXT/UTF8
    Codec ID/Info : UTF-8 Plain Text
    Title : UTF-8 [RUS by Norabenoid]
    Language : Russian
    Text #3
    ID : 6
    Format : UTF-8
    Codec ID : S_TEXT/UTF8
    Codec ID/Info : UTF-8 Plain Text
    Title : UTF-8 [ENG by Mlmlte]
    Language : English

    Скриншоты

    [cybertorrent.ru].t1457.torrent 
    Торрент: Зарегистрирован [ 2018-02-16 03:41 ] · DF807DC54B39A2FA12AC2EDC6110998423F03001

    Скачать .torrent

    Скачать

    50 KB

    Статус: проверено
    Скачан: 0 раз
    Размер: 8,83 GB
  • Профиль [ЛС]
    Показать сообщения:    

    Текущее время: 21-Июл 10:02

    Часовой пояс: UTC ± 0



    Вы не можете начинать темы
    Вы не можете отвечать на сообщения
    Вы не можете редактировать свои сообщения
    Вы не можете удалять свои сообщения
    Вы не можете голосовать в опросах
    Вы не можете прикреплять файлы к сообщениям
    Вы можете скачивать файлы