Статистика раздачи
Нет
 
     
 
 

MAGNAT ®

Пол:
Мужской
Стаж:
2 года 6 месяцев
Сообщений:
11685

Откуда: Москва

Игла- Страна: СССР
Студия: Студия Казахфильм
Жанр: триллер, драма
Год выпуска: 1988
Продолжительность: 01:16:49
Субтитры: русские (SDH), английские, французские, немецкие, испанские, корейские
Режиссер: Рашид Нугманов

В ролях: Виктор Цой, Марина Смирнова, Петр Мамонов, Александр Баширов, Архимед Искаков, Геннадий Люй, Александр Конкс, Рахимжан Абдыкадыров, Райхан Канатбаев, Айхан Чатаева, Владимир Даниленко
Описание: Моро приезжает в родной город, чтобы получить старый долг и останавливается у своей подруги, с которой давно расстался. Наблюдая за ее странными знакомыми, Моро понимает, что Дина стала наркоманкой. Моро увозит девушку к морю, где Дина начинает выздоравливать. Однако после возвращения в город все начинается сначала. Моро решает расправиться с поставщиками наркотиков.

Тип релиза: BDRip 1080p (The.Needle.1988.1080p.BluRay.x264-FUTURiSTiC)
Контейнер: MKV
Видео: 1424x1080 (4:3), 25 fps, AVC/H.264 ~8674 kbps avg, 0.226 bit/pixel
Аудио: Русский, DTS, 2 ch, 48.0 kHz, 1509 kbps
Аудио 2: Русский, AC3, 2 ch, 48.0 kHz, 256 kbps
Формат субтитров: softsub (SRT)
Релиз:

MediaInfo

General
Unique ID : 1998779358650485929334494169075719809 (0x180F36E4EA6DB53BBBDBEE1E0369E81)
Complete name : Игла.(The.Needle).1988.BDRip.1080p.mkv
Format : Matroska
Format version : Version 4
File size : 5.60 GiB
Duration : 1 h 16 min
Overall bit rate : 10.4 Mb/s
Encoded date : UTC 2019-05-20 06:41:21
Writing application : mkvmerge v32.0.0 ('Astral Progressions') 64-bit
Writing library : libebml v1.3.7 + libmatroska v1.5.0
Video
ID : 1
Format : AVC
Format/Info : Advanced Video Codec
Format profile : High@L4.1
Format settings : CABAC / 5 Ref Frames
Format settings, CABAC : Yes
Format settings, ReFrames : 5 frames
Codec ID : V_MPEG4/ISO/AVC
Duration : 1 h 16 min
Bit rate : 8 674 kb/s
Width : 1 424 pixels
Height : 1 080 pixels
Display aspect ratio : 4:3
Frame rate mode : Constant
Frame rate : 25.000 FPS
Color space : YUV
Chroma subsampling : 4:2:0
Bit depth : 8 bits
Scan type : Progressive
Bits/(Pixel*Frame) : 0.226
Stream size : 4.66 GiB (83%)
Writing library : x264 core 157 r2969 d4099dd
Encoding settings : cabac=1 / ref=5 / deblock=1:0:0 / analyse=0x3:0x133 / me=umh / subme=10 / psy=1 / psy_rd=1.00:0.00 / mixed_ref=1 / me_range=24 / chroma_me=1 / trellis=2 / 8x8dct=1 / cqm=0 / deadzone=21,11 / fast_pskip=1 / chroma_qp_offset=-2 / threads=24 / lookahead_threads=4 / sliced_threads=0 / nr=0 / decimate=1 / interlaced=0 / bluray_compat=0 / constrained_intra=0 / bframes=8 / b_pyramid=2 / b_adapt=2 / b_bias=0 / direct=3 / weightb=1 / open_gop=0 / weightp=2 / keyint=250 / keyint_min=25 / scenecut=40 / intra_refresh=0 / rc_lookahead=60 / rc=2pass / mbtree=1 / bitrate=8674 / ratetol=1.0 / qcomp=0.60 / qpmin=0 / qpmax=69 / qpstep=4 / cplxblur=20.0 / qblur=0.5 / ip_ratio=1.40 / aq=1:1.00
Default : Yes
Forced : No
Audio #1
ID : 2
Format : DTS
Format/Info : Digital Theater Systems
Codec ID : A_DTS
Duration : 1 h 16 min
Bit rate mode : Constant
Bit rate : 1 509 kb/s
Channel(s) : 2 channels
Channel layout : L R
Sampling rate : 48.0 kHz
Frame rate : 93.750 FPS (512 SPF)
Bit depth : 24 bits
Compression mode : Lossy
Stream size : 829 MiB (14%)
Title : DTS, 1509kbps, 2ch
Language : Russian
Default : Yes
Forced : No
Audio #2
ID : 3
Format : AC-3
Format/Info : Audio Coding 3
Commercial name : Dolby Digital
Codec ID : A_AC3
Duration : 1 h 16 min
Bit rate mode : Constant
Bit rate : 256 kb/s
Channel(s) : 2 channels
Channel layout : L R
Sampling rate : 48.0 kHz
Frame rate : 31.250 FPS (1536 SPF)
Bit depth : 16 bits
Compression mode : Lossy
Stream size : 141 MiB (2%)
Title : AC3, 256kbps, 2ch
Language : Russian
Service kind : Complete Main
Default : No
Forced : No
Text #1
ID : 4
Format : UTF-8
Codec ID : S_TEXT/UTF8
Codec ID/Info : UTF-8 Plain Text
Duration : 1 h 16 min
Bit rate : 41 b/s
Count of elements : 557
Stream size : 23.4 KiB (0%)
Language : Russian
Default : No
Forced : No
Text #2
ID : 5
Format : UTF-8
Codec ID : S_TEXT/UTF8
Codec ID/Info : UTF-8 Plain Text
Duration : 1 h 16 min
Bit rate : 27 b/s
Count of elements : 511
Stream size : 15.3 KiB (0%)
Language : English
Default : No
Forced : No
Text #3
ID : 6
Format : UTF-8
Codec ID : S_TEXT/UTF8
Codec ID/Info : UTF-8 Plain Text
Duration : 1 h 16 min
Bit rate : 23 b/s
Count of elements : 499
Stream size : 13.3 KiB (0%)
Language : French
Default : No
Forced : No
Text #4
ID : 7
Format : UTF-8
Codec ID : S_TEXT/UTF8
Codec ID/Info : UTF-8 Plain Text
Duration : 1 h 16 min
Bit rate : 20 b/s
Count of elements : 498
Stream size : 11.5 KiB (0%)
Language : German
Default : No
Forced : No
Text #5
ID : 8
Format : UTF-8
Codec ID : S_TEXT/UTF8
Codec ID/Info : UTF-8 Plain Text
Duration : 1 h 16 min
Bit rate : 20 b/s
Count of elements : 498
Stream size : 11.4 KiB (0%)
Language : Spanish
Default : No
Forced : No
Text #6
ID : 9
Format : UTF-8
Codec ID : S_TEXT/UTF8
Codec ID/Info : UTF-8 Plain Text
Duration : 1 h 16 min
Bit rate : 25 b/s
Count of elements : 496
Stream size : 14.2 KiB (0%)
Language : Korean
Default : No
Forced : No
Menu
00:00:00.000 : en:Chapter 01
00:07:14.920 : en:Chapter 02
00:14:38.520 : en:Chapter 03
00:22:07.760 : en:Chapter 04
00:34:16.360 : en:Chapter 05
00:47:08.800 : en:Chapter 06
00:55:38.800 : en:Chapter 07
01:05:08.080 : en:Chapter 08
01:12:47.720 : en:Chapter 09

Скриншоты

Профиль [ЛС]
Показать сообщения:    

Текущее время: 18-Окт 22:16

Часовой пояс: UTC ± 0



Вы не можете начинать темы
Вы не можете отвечать на сообщения
Вы не можете редактировать свои сообщения
Вы не можете удалять свои сообщения
Вы не можете голосовать в опросах
Вы не можете прикреплять файлы к сообщениям
Вы не можете скачивать файлы