Статистика раздачи
Размер:  1,36 GB   |    Зарегистрирован:  6 месяцев 21 день   |    Скачан:  0 раз

Полного источника не было: Никогда

   
 

karlll ®

Пол:
Не указан
Стаж:
7 месяцев 4 дня
Сообщений:
171

Лисенок Вук / Vuk / Vuk: The Little Fox [Полная версия]
Страна: Венгрия
Жанр: Приключения, семейный
Год выпуска: 1981
Продолжительность: 01:13:22
Перевод 1: Профессиональный (дублированный) - Главная редакция кинопрограмм ЦТ | 1984
Перевод 2: Профессиональный (дублированный) - Киностудия им. Горького | 1982
Перевод 3: Студийный (одноголосый закадровый) - Женский
Субтитры: нет
Оригинальная аудиодорожка: Венгерский
Режиссер: Аттила Даргаи / Attila Dargay
В ролях: Роли дублировали: Светлана Харлап, Леонид Белозорович, Николай Граббе, Наталья Казначеева, Валерий Рыжаков, Ольга Громова, Даниил Нетребин, Владимир Смирнов, Юрий Саранцев, Владимир Ферапонтов, Герман Качин, Артем Карапетян, Георгий Милляр.
Описание: Этот мультипликационный фильм, созданный по мотивам одноименной сказки И. Фекете, рассказывает о приключениях маленького озорного лисенка Вука. Много пережил этот хвастунишка, прежде чем превратился в сильного, умного лиса, сумевшего перехитрить даже известного охотника Гладкокожего.
Доп. информация: Рип с моего оригинального DVD (Полная версия и оригинальные цвета!) в ремастер версии Венгры осветили мульт и изменили цвета. Здесь все то, что многие видели в детстве. В рип включил все три Рус озвучки.
Мои благодарности xfiles (за превосходные дорожки с дубляжем) и juventus78 (за VO)
PS Сравнение с другими рипами делать не стал. В оригинальной раскраске мультфильм в полной версии представлен впервые.
DVD Можно взять здесь - http://cybertorrent.ru/forum/viewtopic.php?t=5688335
Сэмпл: http://multi-up.com/1223323
Качество видео: DVDRip
Формат видео: AVI
Видео: XviD 704х528, 25.000 fps, 2 043 Kbps
Аудио 1: Русский (AC3 192, 1 ch)
Аудио 2: Русский (AC3 192, 1 ch)
Аудио 3: Русский (AC3 224, 2 ch)

MediaInfo

General
Complete name : C:\Documents and Settings\admin\Мои документы\Downloads\VUK 1981.avi
Format : AVI
Format/Info : Audio Video Interleave
File size : 1.36 GiB
Duration : 1h 13mn
Overall bit rate : 2 662 Kbps
Writing application : VirtualDubMod 1.5.4.1 (build 2178/release)
Writing library : VirtualDubMod build 2178/release
Video
ID : 0
Format : MPEG-4 Visual
Format profile : Advanced Simple@L5
Format settings, BVOP : 1
Format settings, QPel : No
Format settings, GMC : No warppoints
Format settings, Matrix : Custom
Codec ID : XVID
Codec ID/Hint : XviD
Duration : 1h 13mn
Bit rate : 2 043 Kbps
Width : 704 pixels
Height : 528 pixels
Display aspect ratio : 4:3
Frame rate : 25.000 fps
Color space : YUV
Chroma subsampling : 4:2:0
Bit depth : 8 bits
Scan type : Progressive
Compression mode : Lossy
Bits/(Pixel*Frame) : 0.220
Stream size : 1.05 GiB (77%)
Writing library : XviD 64
Audio #1
ID : 1
Format : AC-3
Format/Info : Audio Coding 3
Mode extension : CM (complete main)
Format settings, Endianness : Big
Codec ID : 2000
Duration : 1h 13mn
Bit rate mode : Constant
Bit rate : 192 Kbps
Channel(s) : 1 channel
Channel positions : Front: C
Sampling rate : 48.0 KHz
Bit depth : 16 bits
Compression mode : Lossy
Stream size : 101 MiB (7%)
Alignment : Split accross interleaves
Interleave, duration : 96 ms (2.40 video frames)
Interleave, preload duration : 96 ms
Audio #2
ID : 2
Format : AC-3
Format/Info : Audio Coding 3
Mode extension : CM (complete main)
Format settings, Endianness : Big
Codec ID : 2000
Duration : 1h 13mn
Bit rate mode : Constant
Bit rate : 192 Kbps
Channel(s) : 1 channel
Channel positions : Front: C
Sampling rate : 48.0 KHz
Bit depth : 16 bits
Compression mode : Lossy
Stream size : 101 MiB (7%)
Alignment : Split accross interleaves
Interleave, duration : 96 ms (2.40 video frames)
Interleave, preload duration : 96 ms
Audio #3
ID : 3
Format : AC-3
Format/Info : Audio Coding 3
Mode extension : CM (complete main)
Format settings, Endianness : Big
Codec ID : 2000
Duration : 1h 13mn
Bit rate mode : Constant
Bit rate : 224 Kbps
Channel(s) : 2 channels
Channel positions : Front: L R
Sampling rate : 48.0 KHz
Bit depth : 16 bits
Compression mode : Lossy
Stream size : 118 MiB (8%)
Alignment : Split accross interleaves
Interleave, duration : 96 ms (2.40 video frames)
Interleave, preload duration : 96 ms

Скриншот c названием фильма

Скриншоты

[cybertorrent.ru].t1459.torrent 
Торрент: Зарегистрирован [ 2019-03-26 15:55 ] · 8B7814EC1861444E1F55D038534D766D8D7ABDC3

Скачать .torrent

Скачать

14 KB

Статус: проверено
Скачан: 0 раз
Размер: 1,36 GB
terms.php
Профиль ЛС
Показать сообщения:    

Текущее время: 17-Окт 08:06

Часовой пояс: UTC ± 0



Вы не можете начинать темы
Вы не можете отвечать на сообщения
Вы не можете редактировать свои сообщения
Вы не можете удалять свои сообщения
Вы не можете голосовать в опросах
Вы не можете прикреплять файлы к сообщениям
Вы можете скачивать файлы