Статистика раздачи
Качаю: [ 1 ]
 
     
 
 

MAGNAT ®

Пол:
Мужской
Стаж:
2 года 6 месяцев
Сообщений:
11685

Откуда: Москва

Моя морячка
Страна: СССР
Студия: Одеон
Жанр: комедия, мюзикл
Год выпуска: 1990
Продолжительность: 01:15:38
Перевод: Не требуется
Субтитры: нет
Оригинальная аудиодорожка: русский
Режиссер: Анатолий Эйрамджан
В ролях: Людмила Гурченко, Татьяна Васильева, Михаил Державин, Любовь Полищук, Роман Рязанцев, Анастасия Немоляева, Георгий Мартиросян, Роксана Бабаян, Максим Воронков, О.Лукашевич, Сергей Цигаль
Описание: Подружки работают массовиками-затейниками в курортном городке и проявляют необыкновенную изобретательность, чтобы отвадить от сцены некоего Гудкова - автора и исполнителя песни "Моя морячка"...
Тип релиза: HDTV 1080i
Контейнер: MKV
Видео: MPEG4 Video (H264) 1920x1080 25fps ~8100 kbps
Аудио: MPEG Audio 48000Hz stereo 192kbps

MediaInfo

Complete name : Моя Морячка (1990) HDTV 1080i by MIF.mkv
Format : Matroska
Format version : Version 4 / Version 2
File size : 4.38 GiB
Duration : 1 h 15 min
Overall bit rate : 8 296 kb/s
Encoded date : UTC 2018-03-09 17:18:33
Writing application : mkvmerge v9.3.1 ('Mask Machine') 64bit
Writing library : libebml v1.3.4 + libmatroska v1.4.5
Video
ID : 1
Format : AVC
Format/Info : Advanced Video Codec
Format profile : Main@L4
Format settings, CABAC : Yes
Format settings, ReFrames : 4 frames
Format settings, GOP : M=1, N=32
Codec ID : V_MPEG4/ISO/AVC
Duration : 1 h 15 min
Bit rate : 8 102 kb/s
Width : 1 920 pixels
Height : 1 080 pixels
Display aspect ratio : 16:9
Frame rate mode : Constant
Frame rate : 25.000 FPS
Color space : YUV
Chroma subsampling : 4:2:0
Bit depth : 8 bits
Scan type : Interlaced
Scan type, store method : Separated fields
Scan order : Top Field First
Bits/(Pixel*Frame) : 0.156
Stream size : 4.28 GiB (98%)
Default : No
Forced : No
Color range : Limited
Color primaries : BT.709
Transfer characteristics : BT.709
Matrix coefficients : BT.709
Audio
ID : 2
Format : MPEG Audio
Format version : Version 1
Format profile : Layer 2
Codec ID : A_MPEG/L2
Codec ID/Hint : MP2
Duration : 1 h 15 min
Bit rate mode : Constant
Bit rate : 192 kb/s
Channel(s) : 2 channels
Sampling rate : 48.0 kHz
Frame rate : 41.667 FPS (1152 spf)
Compression mode : Lossy
Stream size : 104 MiB (2%)
Language : Russian
Default : Yes
Forced : No

Скриншоты


Профиль [ЛС]
Показать сообщения:    

Текущее время: 18-Окт 23:47

Часовой пояс: UTC ± 0



Вы не можете начинать темы
Вы не можете отвечать на сообщения
Вы не можете редактировать свои сообщения
Вы не можете удалять свои сообщения
Вы не можете голосовать в опросах
Вы не можете прикреплять файлы к сообщениям
Вы не можете скачивать файлы