Статистика раздачи
Размер:  2,4 GB   |    Зарегистрирован:  6 месяцев 20 дней   |    Скачан:  0 раз

Полного источника не было: Никогда

   
 

Гость ®

Пол:
Не указан

Виски Кавалер / Whiskey Cavalier Год выпуска: 2019
Страна: США
Жанр: боевик, триллер, драма, комедия, приключения.
Продолжительность: ~ 00:43:00
Перевод: Любительский (многоголосый закадровый) Baibako
Режиссёр: Питер Атенсио, Джон Ист, Ромео Тироне
В ролях: Скотт Фоули, Лорен Кохэн, Ана Ортис, Тайлер Джеймс Уильямс, Вир Дас, Дилан Уолш, Джош Хопкинс, Дэвид Финн, Джеймс МакДэниэл, Вероника Беллова
Описание: Агент ФБР Уилл Чейз, известный под кодовым именем Виски Кавалер, — парень что надо. Бьёт наотмашь, стреляет наповал и живёт жизнью, полной приключений. Одна проблема: Чейз сентиментален, регулярно поддаётся чувствам и даже может всплакнуть из-за бросившей его подружки. В напарники ему назначают оперативницу ЦРУ Франческу «Фрэнки» Троубридж. Она прагматична, бескомпромиссна и сопли пускать не будет.
Вместе с ней Чейз организует команду шпионов, периодически спасает мир, ищет баланс между флиртом и дружбой, а главное — учится не давать волю эмоциям. Последнее окажется почти невыполнимым.

Качество: WEBRip
Формат: AVI
Видео: XviD, 720x400, 23,976 fps, ~ 1600 kbps
Аудио 1: 48 kHz, AC3 Dolby Digital, 2/0 (L,R) ch, ~192 kbps|Baibako|
Аудио 2: 48 kHz, AC3 Dolby Digital, 2/0 (L,R) ch, ~192 kbps
Субтитры: Английские SDH
Реклама: Отсутствует
Исходник: WEBRip 720p

MediaInfo

Format : AVI
Format/Info : Audio Video Interleave
File size : 616 MiB
Duration : 43mn 6s
Overall bit rate : 1 998 Kbps
Movie name : Виски кавалер 1х01: Пилот
Director : Бёдвар (WEBRip 400p)
Writing application : VirtualDubModRus 1.5.10.2 (build 2542/release)
Comment : 16.03.2019
Video
ID : 0
Format : MPEG-4 Visual
Format profile : Advanced Simple@L5
Format settings, BVOP : 1
Format settings, QPel : No
Format settings, GMC : No warppoints
Format settings, Matrix : Default (MPEG)
Codec ID : XVID
Codec ID/Hint : XviD
Duration : 43mn 6s
Bit rate : 1 600 Kbps
Width : 720 pixels
Height : 400 pixels
Display aspect ratio : 16:9
Frame rate : 23.976 (24000/1001) fps
Color space : YUV
Chroma subsampling : 4:2:0
Bit depth : 8 bits
Scan type : Progressive
Compression mode : Lossy
Bits/(Pixel*Frame) : 0.232
Stream size : 493 MiB (80%)
Writing library : XviD 67
Audio #1
ID : 1
Format : AC-3
Format/Info : Audio Coding 3
Mode extension : CM (complete main)
Format settings, Endianness : Big
Codec ID : 2000
Duration : 43mn 6s
Bit rate mode : Constant
Bit rate : 192 Kbps
Channel(s) : 2 channels
Channel positions : Front: L R
Sampling rate : 48.0 KHz
Frame rate : 31.250 fps (1536 spf)
Compression mode : Lossy
Stream size : 59.2 MiB (10%)
Alignment : Split accross interleaves
Interleave, duration : 42 ms (1.00 video frame)
Interleave, preload duratio : 500 ms
Audio #2
ID : 2
Format : AC-3
Format/Info : Audio Coding 3
Mode extension : CM (complete main)
Format settings, Endianness : Big
Codec ID : 2000
Duration : 43mn 6s
Bit rate mode : Constant
Bit rate : 192 Kbps
Channel(s) : 2 channels
Channel positions : Front: L R
Sampling rate : 48.0 KHz
Frame rate : 31.250 fps (1536 spf)
Compression mode : Lossy
Stream size : 59.2 MiB (10%)
Alignment : Split accross interleaves
Interleave, duration : 42 ms (1.00 video frame)
Interleave, preload duratio : 500 ms

Скриншоты

Внимание! Раздача ведётся путём добавления новых серий

Внимание! Раздача ведётся путём добавления новых серий; при каждом добавлении создаётся новый торрент. Чтобы начать докачку новой серии,пользователям необходимо сделать следующее:
(1) остановить скачивание,
(2) удалить старый торрент у себя из клиента (старые серии удалять не надо),
(3) скачать новый торрент и запустить его у себя в клиенте вместо старого, при этом указать клиенту путь в старую папку куда и должнопроисходить скачивание новых серий.
Ваш клиент при этом должен произвести хеширование (проверку) старой папки (если не производит сам - помогите ему сделать это), и будет докачивать только те серии
которых у вас ещё нет. Старые серии при этом не удаляются, а продолжают раздаваться!
Eсли вы уже удалили старые серии, то предотвратить повторную закачку старых серий можно, отжав галочку в соответствующих местах при запуске нового торрента.
По возможности, желательно не удалять старые серии как можно дольше чтобы релизёр не столько продолжал раздавать старые серии, а смог сконцентрироваться на новых.
Предыдущие и альтернативные раздачи
[cybertorrent.ru].t1462.torrent 
Торрент: Зарегистрирован [ 2019-03-26 15:55 ] · A7F7D9C527FCAC9310277D2091C5F419599BA935

Скачать .torrent

Скачать

13 KB

Статус: проверено
Скачан: 0 раз
Размер: 2,4 GB
terms.php
Показать сообщения:    

Текущее время: 16-Окт 04:23

Часовой пояс: UTC ± 0



Вы не можете начинать темы
Вы не можете отвечать на сообщения
Вы не можете редактировать свои сообщения
Вы не можете удалять свои сообщения
Вы не можете голосовать в опросах
Вы не можете прикреплять файлы к сообщениям
Вы можете скачивать файлы