Статистика раздачи
Размер:  1,09 GB   |    Зарегистрирован:  3 месяца 12 дней   |    Скачан:  0 раз

Полного источника не было: Никогда

Личеров:  3  [  0 KB/s  ]  
 
   
 
 

lopster ®

Пол:
Не указан
Стаж:
3 месяца 12 дней
Сообщений:
612

Одуванчик Год выпуска: 2008.
Жанр: мелодрама.
Продолжительность: 01:28:09.
Режиссер: Галина Кувивчак-Сахно.
В ролях:
Анна Кузина, Иван Стебунов, Анастасия Цветаева, Александр Мохов, Николай Добрынин, Елена Сафонова, Анатолий Ященко, Лариса Руснак, Ирина Мак, Сергей Деревянко, Андрей Саминин, Леся Самаева, Игорь Рубашкин, Игорь Гнездилов, Диана Довгань, Евгений Сморигин.
Описание:
Две самые обеспеченные семьи города Андриановы и Зельдовы готовятся к свадьбе детей, которая обещает стать вдающимся бизнес-проектом по слиянию капиталов.
Накануне торжества Родион Андрианов знакомится с невзрачной белокурой девушкой-«одуванчиком» Соней при весьма необычных обстоятельствах — они вместе застревают в лифте, и Соня помогает Родиону преодолеть приступ клаустрофобии. Тем временем Лара Зельдова приглашает аниматором на свою свадьбу бывшую одноклассницу — Соню… Вновь встретившись на свадьбе, Родион и Соня понимают, что их жизнь может быть совершенно другой, но чтобы обрести счастье, им придется выбирать между долгом, любовью, и благополучием…
Доп. информация:
Страна: Россия , Украина .
Киностудия: Star Media.
Автор сценария: Алина Семерякова.
Оператор: Андрей Лисецкий.
Композитор: Никита Моисеев.
Художники: Евгения Лисецкая.
Премьера: 27 марта 2011 года.

Релиз
Рип sharky.

Еще постер


Качество: WEB-DLRip
Формат: AVI
Видео: 704x400 (1.76:1), 25 fps, XviD build 47 ~1632 kbps avg, 0.23 bit/pixel
Аудио: 44.100 kHz, MPEG Layer 3, 2 ch, ~128.00 kbps avg

Отчет Media Info

Общее
Полное имя : Oduvanchik.2011.XviD.WEB-DLRip.fenixclub.avi
Format : AVI
Format/Info : Audio Video Interleave
File size : 1.09 GiB
Duration : 1h 28mn
Overall bit rate : 1 771 Kbps
Writing application : VirtualDubMod 1.5.10.2 (build 2540/release)
Writing library : VirtualDubMod build 2540/release
Video
ID : 0
Format : MPEG-4 Visual
Format profile : Advanced Simple@L5
Format settings, BVOP : 1
Format settings, QPel : No
Format settings, GMC : No warppoints
Format settings, Matrix : Default (H.263)
Codec ID : XVID
Codec ID/Hint : XviD
Duration : 1h 28mn
Bit rate : 1 633 Kbps
Width : 704 pixels
Height : 400 pixels
Display aspect ratio : 16:9
Frame rate : 25.000 fps
Color space : YUV
Chroma subsampling : 4:2:0
Bit depth : 8 bits
Scan type : Progressive
Compression mode : Lossy
Bits/(Pixel*Frame) : 0.232
Stream size : 1.01 GiB (92%)
Writing library : XviD 1.2.0.dev47 (UTC 2006-11-01)
Audio
ID : 1
Format : MPEG Audio
Format version : Version 1
Format profile : Layer 3
Codec ID : 55
Codec ID/Hint : MP3
Duration : 1h 28mn
Bit rate mode : Constant
Bit rate : 128 Kbps
Channel(s) : 2 channels
Sampling rate : 44.1 KHz
Compression mode : Lossy
Stream size : 80.7 MiB (7%)
Alignment : Split accross interleaves
Interleave, duration : 40 ms (1.00 video frame)
Interleave, preload duratio : 500 ms
Writing library : LAME3.97
Encoding settings : -m s -V 4 -q 2 -lowpass 17 -b 128

Скриншоты


Альтернативный хост


[cybertorrent.ru].t148.torrent 
Торрент: Зарегистрирован [ 2018-02-15 13:57 ] · 8AA326FF76022DC41499FF4EDF6C14088E0BD33B

Скачать .torrent

Скачать

11 KB

Статус: проверено
Скачан: 0 раз
Размер: 1,09 GB
Профиль [ЛС]
Показать сообщения:    

Текущее время: 28-Май 08:05

Часовой пояс: UTC ± 0



Вы не можете начинать темы
Вы не можете отвечать на сообщения
Вы не можете редактировать свои сообщения
Вы не можете удалять свои сообщения
Вы не можете голосовать в опросах
Вы не можете прикреплять файлы к сообщениям
Вы можете скачивать файлы