Статистика раздачи
Размер:  11,33 GB   |    Зарегистрирован:  1 месяц 29 дней   |    Скачан:  0 раз
DL-List: Нет

Полного источника не было: Никогда

 
     
 
 

MAGNAT ®

Пол:
Мужской
Стаж:
1 год 2 месяца
Сообщений:
7925

Элита / Élite- Год выпуска: 2018
Страна: Испания
Жанр: Триллер, криминал, драма
Продолжительность: ~00:56:00-Перевод: Профессиональный (многоголосый закадровый)
TVShows-Режиссёр: Рамон Саласар, Дани де ла Орден, Сильвия Кер
В ролях: Итзан Эскамилья, Мигель Бернардо, Альваро Рико, Арон Пайпер, Мина Эль Хаммани, Эстер Экспозито, Омар Аюсо, Данна Паола, Айноа Сантамария, Хвида-Описание: Трое подростков из бедных семей попадают в «Лас Энчинас» — самую престижную школу в стране. Обеспеченным деткам не нравятся новички, и начинается безжалостная битва за власть. В ход идут любые средства и методы, даже убийство.-Качество: WEB-DL 1080p
Контейнер: MKV
Видео: MPEG-4 AVC, 1920x1080, 25 fps, ~3320 kbps
Аудио 1: Русский, AC3, 48 kHz, 6 ch, 384 kbps
Аудио 2: Испанский, E-AC3, 48 kHz, 6 ch, 640 kbps
Субтитры: Английские-Реклама: Отсутствует-

MediaInfo

General
Unique ID : 315201678162643163514692341431982738889 (0xED21A29299DD756EE81D57E5C645CDC9)
Complete name : Elite.S01E01.1080p.TVShows.mkv
Format : Matroska
Format version : Version 4
File size : 1.67 GiB
Duration : 55 min 56 s
Overall bit rate mode : Variable
Overall bit rate : 4 272 kb/s
Encoded date : UTC 2019-10-24 07:19:35
Writing application : mkvmerge v33.1.0 ('Primrose') 64-bit
Writing library : libebml v1.3.7 + libmatroska v1.5.0
Video
ID : 1
Format : AVC
Format/Info : Advanced Video Codec
Format profile : Main@L4
Format settings : CABAC / 3 Ref Frames
Format settings, CABAC : Yes
Format settings, Reference frames : 3 frames
Codec ID : V_MPEG4/ISO/AVC
Duration : 55 min 56 s
Bit rate mode : Variable
Bit rate : 3 320 kb/s
Maximum bit rate : 4 980 kb/s
Width : 1 920 pixels
Height : 1 080 pixels
Display aspect ratio : 16:9
Frame rate mode : Constant
Frame rate : 25.000 FPS
Color space : YUV
Chroma subsampling : 4:2:0
Bit depth : 8 bits
Scan type : Progressive
Bits/(Pixel*Frame) : 0.064
Stream size : 1.27 GiB (76%)
Writing library : x264 core 148 r2715 7e75228
Encoding settings : cabac=1 / ref=3 / deblock=1:0:0 / analyse=0x1:0x111 / me=umh / subme=10 / psy=1 / psy_rd=1.00:0.00 / mixed_ref=1 / me_range=24 / chroma_me=1 / trellis=2 / 8x8dct=0 / cqm=0 / deadzone=21,11 / fast_pskip=1 / chroma_qp_offset=-2 / threads=6 / lookahead_threads=1 / sliced_threads=0 / nr=0 / decimate=1 / interlaced=0 / bluray_compat=0 / stitchable=1 / constrained_intra=0 / bframes=2 / b_pyramid=0 / b_adapt=2 / b_bias=0 / direct=3 / weightb=1 / open_gop=0 / weightp=2 / keyint=50 / keyint_min=26 / scenecut=0 / intra_refresh=0 / rc_lookahead=50 / rc=2pass / mbtree=1 / bitrate=3320 / ratetol=1.0 / qcomp=0.50 / qpmin=6 / qpmax=51 / qpstep=4 / cplxblur=20.0 / qblur=0.5 / vbv_maxrate=4980 / vbv_bufsize=6640 / nal_hrd=vbr / filler=0 / ip_ratio=1.40 / aq=1:1.00
Default : Yes
Forced : No
Audio #1
ID : 2
Format : AC-3
Format/Info : Audio Coding 3
Commercial name : Dolby Digital
Codec ID : A_AC3
Duration : 55 min 56 s
Bit rate mode : Constant
Bit rate : 384 kb/s
Channel(s) : 6 channels
Channel layout : L R C LFE Ls Rs
Sampling rate : 48.0 kHz
Frame rate : 31.250 FPS (1536 SPF)
Compression mode : Lossy
Stream size : 154 MiB (9%)
Title : TVShows
Language : Russian
Service kind : Complete Main
Default : Yes
Forced : Yes
Audio #2
ID : 3
Format : E-AC-3
Format/Info : Enhanced AC-3
Commercial name : Dolby Digital Plus
Codec ID : A_EAC3
Duration : 55 min 56 s
Bit rate mode : Constant
Bit rate : 640 kb/s
Channel(s) : 6 channels
Channel layout : L R C LFE Ls Rs
Sampling rate : 48.0 kHz
Frame rate : 31.250 FPS (1536 SPF)
Compression mode : Lossy
Stream size : 256 MiB (15%)
Title : Original
Language : Spanish
Service kind : Complete Main
Default : No
Forced : No
Text
ID : 4
Format : UTF-8
Codec ID : S_TEXT/UTF8
Codec ID/Info : UTF-8 Plain Text
Duration : 54 min 44 s
Bit rate : 58 b/s
Count of elements : 710
Stream size : 23.3 KiB (0%)
Title : English
Language : English
Default : No
Forced : No

Скриншоты

[cybertorrent.ru].t14828.torrent 
Торрент: Зарегистрирован [ 2020-04-02 13:00 ] · 51E8A3895824D5A0D17EC781348C93C81AAEB89F

Скачать .torrent

Скачать

58 KB

Статус: проверено
Скачан: 0 раз
Размер: 11,33 GB  ·  Тип торрента
terms.php
Профиль [ЛС]
Показать сообщения:    

Текущее время: 01-Июн 15:51

Часовой пояс: UTC ± 0



Вы не можете начинать темы
Вы не можете отвечать на сообщения
Вы не можете редактировать свои сообщения
Вы не можете удалять свои сообщения
Вы не можете голосовать в опросах
Вы не можете прикреплять файлы к сообщениям
Вы можете скачивать файлы