Статистика раздачи
Размер:  5,56 GB   |    Зарегистрирован:  6 месяцев 24 дня   |    Скачан:  0 раз

Полного источника не было: Никогда

   
 

Гость ®

Пол:
Не указан

Годунов. Продолжение
Год выпуска: 2019
Производство: Главкино
Жанр: драма, история
Продолжительность: ~00:53:00 серия
Субтитры: нет
Режиссёр: Тимур Алпатов
В ролях: Сергей Безруков, Светлана Ходченкова, Евгений Ткачук, Дарья Урсуляк, Александр Устюгов, Ирина Пегова, Андрей Мерзликин, Мария Андреева, Александр Горбатов , Иван Колесников, Кирилл Зайцев , Александра Никифорова, Илья Ильиных, Борис Плотников, Станислав Любшин, Пётр Зайченко, Ольга Калицка, Юрий Тарасов, Николай Козак, Владимир Капустин, Антон Батырев, Дмитрий Фрид, Максим Важов, Артём Алексеев , Анастасия Михайлова, Ольга Дегтярёва, Алексей Овсянников
Описание: Вторая часть саги охватывает годы Смутного времени. Это продолжение истории любви, истории России и истории семьи Годуновых. Борис, первый избранный царь на Руси, обещал расцвет и усиление государства. Но голод, эпидемии и бедствия не дали надеждам сбыться. Потеряв уверенность в своих силах, Борис Годунов допускает роковые ошибки, не отличая друзей от врагов… Начинаются времена переворотов, тревог и больших потрясений. Крушение власти, политические игры, волна самозванства, народные восстания…

Реклама: Нет.
Кинопоиск
Все раздачи сериала
Sample
Качество: HDTV 1080i - daboen
Формат: TS
Видео кодек: AVC
Аудио кодек: MP2
Видео: MPEG4 AVC Video, H264, 16:9, 1920x1080, 25 fps, ~7080 kbps, 0.137 bit/pixel
Аудио: MP2, 2 ch, 192 kbps, 16 bits, 48.0 KHz

Внимание! Раздача ведётся путём добавления новых серий

Раздача ведётся путём добавления новых серий, при каждом добавлении создаётся новый торрент. Чтобы начать докачку новой серии, пользователям необходимо сделать следующее:
- Остановить скачивание.
- Удалить старый торрент у себя из клиента (старые серии удалять не надо).
- Скачать новый торрент и запустить его у себя в клиенте вместо старого, при этом указать клиенту путь в старую папку куда и должно происходить скачивание новых серий.
Ваш клиент при этом должен произвести хеширование (проверку) старой папки (если не производит сам - помогите ему сделать это), и будет докачивать только те серии которых у вас ещё нет. Старые серии при этом не удаляются, а продолжают раздаваться!
Если вы уже удалили старые серии, то предотвратить повторную закачку старых серий можно, отжав галочку в соответствующих местах при запуске нового торрента. По возможности, желательно не удалять старые серии как можно дольше, чтобы релизер не столько продолжал раздавать старые серии, а смог сконцентрироваться на новых.

MI

General
ID : 1 (0x1)
Complete name : D:\Godunov.Prodolzhenie.2019.HDTV.1080i\Godunov.Prodolzhenie.01.2019.HDTV.1080i.ts
Format : MPEG-TS
File size : 2.86 GiB
Duration : 53 min 33 s
Overall bit rate mode : Variable
Overall bit rate : 7 652 kb/s
Video
ID : 2911 (0xB5F)
Menu ID : 1343 (0x53F)
Format : AVC
Format/Info : Advanced Video Codec
Format profile : High@L4
Format settings : CABAC / 4 Ref Frames
Format settings, CABAC : Yes
Format settings, ReFrames : 4 frames
Codec ID : 27
Duration : 53 min 33 s
Bit rate : 7 080 kb/s
Width : 1 920 pixels
Height : 1 080 pixels
Display aspect ratio : 16:9
Frame rate : 25.000 FPS
Color space : YUV
Chroma subsampling : 4:2:0
Bit depth : 8 bits
Scan type : MBAFF
Scan type, store method : Interleaved fields
Scan order : Top Field First
Bits/(Pixel*Frame) : 0.137
Stream size : 2.65 GiB (93%)
Audio
ID : 2912 (0xB60)
Menu ID : 1343 (0x53F)
Format : MPEG Audio
Format version : Version 1
Format profile : Layer 2
Format settings : Joint stereo / Intensity Stereo + MS Stereo
Codec ID : 3
Duration : 53 min 33 s
Bit rate mode : Constant
Bit rate : 192 kb/s
Channel(s) : 2 channels
Sampling rate : 48.0 kHz
Frame rate : 41.667 FPS (1152 SPF)
Compression mode : Lossy
Stream size : 73.5 MiB (3%)
Language : Russian

Скриншоты


[cybertorrent.ru].t1484.torrent 
Торрент: Зарегистрирован [ 2019-03-26 15:55 ] · C71E5B75FF3A2DBA80F867BD9F88147D18CA7088

Скачать .torrent

Скачать

28 KB

Статус: проверено
Скачан: 0 раз
Размер: 5,56 GB
terms.php
Показать сообщения:    

Текущее время: 20-Окт 10:57

Часовой пояс: UTC ± 0



Вы не можете начинать темы
Вы не можете отвечать на сообщения
Вы не можете редактировать свои сообщения
Вы не можете удалять свои сообщения
Вы не можете голосовать в опросах
Вы не можете прикреплять файлы к сообщениям
Вы можете скачивать файлы