Статистика раздачи
Размер:  3,77 GB   |    Зарегистрирован:  5 месяцев 7 дней   |    Скачан:  0 раз

Полного источника не было: Никогда

Личеров:  9  [  0 KB/s  ]  
 
   
 
 

Gomer ®

Пол:
Не указан
Стаж:
5 месяцев 8 дней
Сообщений:
40

Гриффины / Family Guy -Оригинальное название: Family Guy
Русское название: Гриффины
Год выпуска: 2010
Страна: США
Жанр: Мультсериал, комедия, пародия, мюзикл
Продолжительность: ~50 минут (1, 7 серии), ~56 минут (18 серия), ~20 минут (остальные)
Перевод: Профессиональный (многоголосый, закадровый)
Перевод и озвучивание: Hedgehog Riders и студия Propeller Sound.
Роли озвучивали:
  • Юрий Маляров - Питер, Кливленд и другие.
  • Никита Прозоровский - Брайн, Стьюи, Куагмир и другие.
  • Вадим Максимов (18 серия) - Роджер, Клаус (персонажи из мультсериала "Американский папаша!".)
  • Людмила Гнилова - все женские и детские роли.
Субтитры: есть (на UNCUT моменты)
Сэмпл: скачать-Производство: FOX
Режиссёр: Сет Макфарлейн / Seth MacFarlane
-Роли озвучивали: Сет МакФарлейн, Алекс Борштейн, Сет Грин, Мила Кунис, Майк Генри и другие.-Описание: "Гриффины" (Family Guy) - анимационное ТВ-Шоу, созданное Сетом МакФерлайном (Seth MacFarlane) для телеканала FOX. Как нетрудно догадаться, главными героями шоу является семейка Гриффинов: тупой, но полный сумашедших идей, составляющих львиную долю шуток сериала, отец семейства Питер; его любящая и терпеливая жена Лойс, всеми силами пытающаяся превратить Гриффинов в нормальную семью; их интеллектуально развитый не по годам, вынашивающий идею мирового господства младший сын Стьюи; дочь-ботаник, обречённая из-за этого на одиночество и непонимание как в школе так и дома, Мэг; и 13-ти летний отсталый в развитии лет на 10, сын Крис. Также полноценным членом семьи является пёс Брайн - склонный к меланхолии эстет, спокойно наблюдающий с бокалом вина в лапе над приключениями Питера и остальных членов семьи (и это при всём притом, что остальные собаки в сериале не являются очеловеченными).-РЕЛИЗ ОТ: V.SERIJ2013-Спасибо SuperBayanBabayan за синхронизацию аудиодорожки 2х2.
Звуковые дорожки используются из раздачи Marnetic.
-Качество: WEB-DLRip
Формат: AVI
Видео кодек: XviD
Аудио кодек: AC3
Видео: Xvid 720x400, 23.98fps, ~590Kbps
Аудио:
  • русская [2х2]: Dolby AC3 48000Hz stereo 192kbps,
  • английская (1-17 серии): Dolby AC3 48000Hz stereo 192kbps,
    английская (18 серия): Dolby AC3 48000Hz 6ch 448kbps
Скриншоты:
-

Список серий

9 сезон (2010 год):
01. And then there were fewer
02. Excellence in Broadcasting
03. Welcome back Carter
04. Halloween on Spooner Street
05. Baby You Knock Me Out
06. Brian writes a bestseller
07. Road to North Pole
08. New Kidney in Town
09. And I'm Joyce Kinney
10. Friends of Peter G
11. German Guy
12. The Hand That Rocks the Wheelchair
13. Trading Places
14. Tiegs for You
15. Brothers & Sisters
16. The Big Bang Theory
17. Foreign Affairs
18. It's a Trap!

Media Info

Код:General
Complete name : E:\Videos\Sample Videos\Family Guy Season 9\01. And then there were fewer.avi
Format : AVI
Format/Info : Audio Video Interleave
File size : 347 MiB
Duration : 49mn 7s
Overall bit rate : 989 Kbps
Writing application : VirtualDubMod 1.5.10.2 (build 2540/release)
Writing library : VirtualDubMod build 2540/release
Video
ID : 0
Format : MPEG-4 Visual
Format profile : Advanced Simple@L5
Format settings, BVOP : Yes
Format settings, QPel : No
Format settings, GMC : No warppoints
Format settings, Matrix : Default (H.263)
Muxing mode : Packed bitstream
Codec ID : XVID
Codec ID/Hint : XviD
Duration : 49mn 7s
Bit rate : 590 Kbps
Width : 720 pixels
Height : 400 pixels
Display aspect ratio : 16:9
Frame rate : 23.976 fps
Color space : YUV
Chroma subsampling : 4:2:0
Bit depth : 8 bits
Scan type : Progressive
Compression mode : Lossy
Bits/(Pixel*Frame) : 0.086
Stream size : 207 MiB (60%)
Writing library : XviD 58
Audio #1
ID : 1
Format : AC-3
Format/Info : Audio Coding 3
Mode extension : CM (complete main)
Codec ID : 2000
Duration : 49mn 6s
Bit rate mode : Constant
Bit rate : 192 Kbps
Channel(s) : 2 channels
Channel positions : Front: L R
Sampling rate : 48.0 KHz
Bit depth : 16 bits
Compression mode : Lossy
Stream size : 67.5 MiB (19%)
Alignment : Split accross interleaves
Interleave, duration : 42 ms (1.00 video frame)
Interleave, preload duration : 500 ms
Audio #2
ID : 2
Format : AC-3
Format/Info : Audio Coding 3
Mode extension : CM (complete main)
Codec ID : 2000
Duration : 49mn 7s
Bit rate mode : Constant
Bit rate : 192 Kbps
Channel(s) : 2 channels
Channel positions : Front: L R
Sampling rate : 48.0 KHz
Bit depth : 16 bits
Compression mode : Lossy
Stream size : 67.5 MiB (19%)
Alignment : Aligned on interleaves
Interleave, duration : 42 ms (1.00 video frame)
Interleave, preload duration : 512 ms
-Все раздачи мультсериала
[cybertorrent.ru].t1498.torrent 
Торрент: Зарегистрирован [ 2018-02-16 06:54 ] · 240A432DA7A8B3E394C266216D1DF122DB4A136C

Скачать .torrent

Скачать

21 KB

Статус: проверено
Скачан: 0 раз
Размер: 3,77 GB
Профиль [ЛС]
Показать сообщения:    

Текущее время: 23-Июл 13:57

Часовой пояс: UTC ± 0



Вы не можете начинать темы
Вы не можете отвечать на сообщения
Вы не можете редактировать свои сообщения
Вы не можете удалять свои сообщения
Вы не можете голосовать в опросах
Вы не можете прикреплять файлы к сообщениям
Вы можете скачивать файлы