Статистика раздачи
Размер:  700 MB   |    Зарегистрирован:  3 месяца 12 дней   |    Скачан:  0 раз

Полного источника не было: Никогда

 
   
 
 

lopster ®

Пол:
Не указан
Стаж:
3 месяца 12 дней
Сообщений:
612

Жизнь и необычайные приключения солдата Ивана Чонкина
Год выпуска: 1994
Страна: Великобритания, Чехия, Франция, Россия, Италия
Жанр: комедия
Продолжительность: 1ч 46 мин
Режиссер: Иржи Менцель
В ролях: Влaдимиp Ильин, Гeннaдий Haзapoв, Aлeкceй Жapкoв, Зинoвий Гepдт, Вaлepий Зoлoтухин, Зoя Буpяк, Ивaн Pыжoв, Taтьянa Oшуpкoвa, Гaлинa Пeтpoвa, Aлeкcaндp Moхoв, Cepгeй Cтeпaнчeнкo, Mapия Винoгpaдoвa, Taтьянa Aгaфoнoвa, Oльгa Aнoхинa, Aвaнгapд Лeoнтьeв, Cepгeй Гapмaш, Любoвь Pуднeвa, Юpий Дубpoвин
Описание: В основе - знаменитая повесть Владимира Войновича, ставшая бестселлером на заре Перестройки, в год первой (надолго отсроченной) публикации в журнале ''Юность''. Формально фильм нашим не является: продюсером выступает англичанин, режиссером - чех, да и сама картина снята на территории Чехии. Но благодаря тому, что в большинстве ролей задействованы российские актеры, выдающемуся в прошлом чешскому режиссеру удалось избежать очевидных ''клюквенных'' деталей, чем в большинстве своем грешат импортные фильмы о России. Менцель, воспитанный на традициях романа Ярослава Гашека, интерпретировал Чонкина как русского Швейка - в стиле теплого юмора, незаметно переходящего в сарказм.
Доп. информация: Золотая медаль Сената на МКФ в Венеции, 1994
Все раздачи фильма: Жизнь и необычайные приключения солдата Ивана Чонкина
Качество: VHSRip
Формат: AVI
Видео кодек: DivX
Аудио кодек: MP3
Видео: 352x240 (1.47:1), 25 fps, DivX Codec 5.2.1 beta ~820 kbps avg, 0.39 bit/pixel
Аудио: Audio: 48 kHz, MPEG Layer 3, 2 ch, ~96.00 kbps avg

MI

Код:Общее
Полное имя : C:\otkat\Видео\Жизнь и необычайные приключения Ивана Чонкина\Chonkin.avi
Формат : AVI
Формат/Информация : Audio Video Interleave
Размер файла : 700 Мбайт
Продолжительность : 1 ч. 45 м.
Общий поток : 924 Кбит/сек
Программа кодирования : VirtualDubMod 1.5.4.1 (build 2178/release)
Видео
Идентификатор : 0
Формат : MPEG-4 Visual
Параметр BVOP формата : Нет
Параметр QPel формата : Нет
Параметр GMC формата : Без точки перехода
Параметр матрицы формата : Default (H.263)
Идентификатор кодека : DX50
Идентификатор кодека/Подсказка : DivX 5
Продолжительность : 1 ч. 45 м.
Битрейт : 821 Кбит/сек
Ширина : 352 пикселя
Высота : 240 пикселей
Соотношение сторон : 3:2
Частота кадров : 25,000 кадров/сек
Цветовое пространство : YUV
Субдискретизация насыщенности : 4:2:0
Битовая глубина : 8 бит
Тип развёртки : Прогрессивная
Метод сжатия : С потерями
Бит/(Пиксели*Кадры) : 0.389
Размер потока : 622 Мбайт (89%)
Библиотека кодирования : DivX 5.2.1 Beta (UTC 2004-09-08)
Аудио
Идентификатор : 1
Формат : MPEG Audio
Версия формата : Version 1
Профиль формата : Layer 3
Режим : Joint stereo
Расширение режима : Intensity Stereo + MS Stereo
Идентификатор кодека : 55
Идентификатор кодека/Подсказка : MP3
Продолжительность : 1 ч. 45 м.
Вид битрейта : Постоянный
Битрейт : 96,0 Кбит/сек
Каналы : 2 канала
Частота : 48,0 КГц
Метод сжатия : С потерями
Размер потока : 72,7 Мбайт (10%)
Выравнивание : Разделение по промежуткам
Продолжительность промежутка : 80 мс. (2,00 видеокадра)
Время предзагрузки промежутка : 500 мс.

Скриншоты:


[cybertorrent.ru].t15.torrent 
Торрент: Зарегистрирован [ 2018-02-15 13:57 ] · 87D701EC289A66D67A1EC76518225329249D4CE2

Скачать .torrent

Скачать

14 KB

Статус: проверено
Скачан: 0 раз
Размер: 700 MB
Профиль [ЛС]
Показать сообщения:    

Текущее время: 28-Май 08:07

Часовой пояс: UTC ± 0



Вы не можете начинать темы
Вы не можете отвечать на сообщения
Вы не можете редактировать свои сообщения
Вы не можете удалять свои сообщения
Вы не можете голосовать в опросах
Вы не можете прикреплять файлы к сообщениям
Вы можете скачивать файлы