Статистика раздачи
Размер:  4,66 GB   |    Зарегистрирован:  9 месяцев 27 дней   |    Скачан:  0 раз

Полного источника не было: Никогда

Личеров:  8  [  0 KB/s  ]  
 
   
 
 

Gomer ®

Пол:
Не указан
Стаж:
9 месяцев 27 дней
Сообщений:
40

Гриффины / Family Guy Год выпуска: 2010
Страна: США
Жанр: Мультсериал, комедия, пародия, мюзикл
Продолжительность: ~ 00:20:00
Перевод: Профессиональный многоголосый закадровый (2x2)
Субтитры: есть (на UNCUT моменты)
Режиссёр: Сет Макфарлейн
Роли озвучивали: Сет МакФарлейн, Алекс Борштейн, Сет Грин, Мила Кунис, Майк Генри...
Описание: "Гриффины" (Family Guy) - анимационное ТВ-Шоу, созданное Сетом МакФерлайном (Seth MacFarlane) для телеканала FOX. Как нетрудно догадаться, главными героями шоу является семейка Гриффинов: тупой, но полный сумашедших идей, составляющих львиную долю шуток сериала, отец семейства Питер; его любящя и терпеливая жена Лойс, всеми силами пытающаяся превратить Гриффинов в нормальную семью; их интеллектуально развитый не по годам, вынашивающий идею мирового господства младший сын Стьюи; дочь-ботаник, обречённая из-за этого на одиночество и непонимание как в школе так и дома, Мэг; и 13-ти летний отсталый в развитии лет на 10, сын Крис. Также полноценным членом семьи является пёс Брайн - склонный к меланхолии эстет, спокойно наблюдающий с бокалом вина в лапе над приключениями Питера и остальных членов семьи (и это при всём притом, что остальные собаки в сериале не являются очеловеченными)...
Ссылка на предыдущие и альтернативные раздачи: http://cybertorrent.ru/viewforum.php?f=1247
Сэмпл: http://multi-up.com/835946
Качество: HDRip-AVC
Формат: MKV
Видео кодек: H.264
Аудио кодек: AC3
Видео: 720x400 (1.77:1), 23.976 fps, ~1200kbps avg, 0.19 bit/pixel
Аудио РУС: 48 kHz, AC3, 2 ch, ~192kbps
Запись звука: Marnetic
Синхронизация звука: SuperBayanBabayan
Субтитры: SuperBayanBabayan
Работа с видео: Allo-4ka

MI

Код:бщее
Уникальный идентификатор : 212575104153907944123530684333327678294 (0x9FEC79D171E13B22A7BE7EBD55E87B56)
Полное имя : D:\______RIP\10.mkv (1).mkv
Формат : Matroska
Версия формата : Version 4 / Version 2
Размер файла : 218 Мбайт
Продолжительность : 21 м.
Общий поток : 1394 Кбит/сек
Дата кодирования : UTC 2013-02-26 07:56:16
Программа кодирования : mkvmerge v6.0.0 ('Coming Up For Air') built on Jan 20 2013 09:52:00
Библиотека кодирования : libebml v1.3.0 + libmatroska v1.4.0
Видео
Идентификатор : 1
Формат : AVC
Формат/Информация : Advanced Video Codec
Профиль формата : High@L3.1
Параметр CABAC формата : Да
Параметр ReFrames формата : 10 кадров
Идентификатор кодека : V_MPEG4/ISO/AVC
Продолжительность : 21 м.
Битрейт : 1200 Кбит/сек
Ширина : 720 пикселей
Высота : 400 пикселей
Соотношение сторон : 16:9
Режим частоты кадров : Постоянный
Частота кадров : 23,976 кадра/сек
Цветовое пространство : YUV
Субдискретизация насыщенности : 4:2:0
Битовая глубина : 8 бит
Тип развёртки : Прогрессивная
Бит/(Пиксели*Кадры) : 0.174
Размер потока : 184 Мбайт (84%)
Библиотека кодирования : x264 core 129 r2245 bc13772
Настройки программы : cabac=1 / ref=10 / deblock=1:-1:-1 / analyse=0x3:0x133 / me=umh / subme=10 / psy=1 / psy_rd=1.00:0.15 / mixed_ref=1 / me_range=32 / chroma_me=1 / trellis=2 / 8x8dct=1 / cqm=0 / deadzone=21,11 / fast_pskip=1 / chroma_qp_offset=-3 / threads=6 / lookahead_threads=1 / sliced_threads=0 / nr=0 / decimate=1 / interlaced=0 / bluray_compat=0 / constrained_intra=0 / bframes=10 / b_pyramid=2 / b_adapt=2 / b_bias=0 / direct=3 / weightb=1 / open_gop=0 / weightp=2 / keyint=240 / keyint_min=23 / scenecut=40 / intra_refresh=0 / rc_lookahead=40 / rc=2pass / mbtree=1 / bitrate=1200 / ratetol=1.0 / qcomp=0.60 / qpmin=0 / qpmax=69 / qpstep=4 / cplxblur=20.0 / qblur=0.5 / ip_ratio=1.40 / aq=1:1.00
Язык : English
Default : Да
Forced : Нет
Аудио
Идентификатор : 2
Формат : AC-3
Формат/Информация : Audio Coding 3
Расширение режима : CM (complete main)
Параметр Endianness формата : Big
Идентификатор кодека : A_AC3
Продолжительность : 21 м.
Вид битрейта : Постоянный
Битрейт : 192 Кбит/сек
Каналы : 2 канала
Расположение каналов : Front: L R
Частота : 48,0 КГц
Битовая глубина : 16 бит
Метод сжатия : С потерями
Размер потока : 30,0 Мбайт (14%)
Язык : Russian
Default : Да
Forced : Нет

Скриншоты


Скриншоты альтернатива

[cybertorrent.ru].t1501.torrent 
Торрент: Зарегистрирован [ 2018-02-16 06:54 ] · D334A931279026452FECB393A7ECC5030EF2CCDD

Скачать .torrent

Скачать

25 KB

Статус: проверено
Скачан: 0 раз
Размер: 4,66 GB
Профиль [ЛС]
Показать сообщения:    

Текущее время: 15-Дек 07:32

Часовой пояс: UTC ± 0



Вы не можете начинать темы
Вы не можете отвечать на сообщения
Вы не можете редактировать свои сообщения
Вы не можете удалять свои сообщения
Вы не можете голосовать в опросах
Вы не можете прикреплять файлы к сообщениям
Вы можете скачивать файлы
Torrents24.ru открытый BitTorrent Torrents24.pl открытый BitTorrent CyberTorrent.ru открытый BitTorrent BtList.ru рейтинг BitTorrent трекеров Яндекс.Метрика