Статистика раздачи
Размер:  1,46 GB   |    Зарегистрирован:  6 месяцев 23 дня   |    Скачан:  0 раз
Сидов:  22  [  0 KB/s  ]  
   
 

солнышко ®

Пол:
Не указан
Стаж:
7 месяцев 7 дней
Сообщений:
565

Последнее желание / The Final Wish
Страна: США
Жанр: ужасы
Год выпуска: 2018
Продолжительность: 01:35:53-Перевод: Любительский (многоголосый закадровый) | HDrezka Studio
Субтитры: нет
Оригинальная аудиодорожка: нет-Режиссер: Тимоти Вудворд мл. / Timothy Woodward Jr.-В ролях: Лин Шэй, Майкл Уэлш, Мелисса Болона, Спенсер Лок, Тони Тодд, Каиви Лайман, Джонатан Даниэль Браун, Жан Эли, Кристофер Мюррэй, Дуглас Тейт-Описание: Аарон – молодой и симпатичный парень, недавно вырвавшийся из-под опеки родителей. Вместе с любимой девушкой он переехал на съемную квартиру, чтоб начать самостоятельную жизнь. Но их радость омрачает печальное известие: отец героя умирает. Престарелая мать боится оставаться в пустом особняке, и молодые люди приезжают к ней, чтобы скрасить одиночество и привести дом порядок. Разбирая старые вещи отца, герой натыкается на странный предмет, которого раньше никогда не видел. В попытках понять, для чего он предназначен, Аарон случайно выпускает на свободу древнее и могущественное зло. Вскоре герои фильма «Последнее желание» начинают видеть пугающие видения. Реалистичность галлюцинаций повергает семью в шок, поэтому они решают уехать из дома. Но зло продолжает преследовать их вне стен старинного особняка. Юноше и его невесте предстоит понять, какую тайну таит необычный артефакт, сдерживавший кровожадного духа, и как загнать коварного монстра в ловушку, из которой он не сможет выбраться. Но смогут ли они перехитрить опасного врага прежде, чем он уничтожит их?-Качество видео: BDRip
Формат видео: AVI
Видео: 720x304 (2.37:1), 23.976 fps, XviD build 73 ~1972 kbps avg, 0.38 bit/pixel
Аудио: 48 kHz, AC3 Dolby Digital, 2/0 (L,R) ch, ~192 kbps-[box]Сэмпл[/box]-

MediaInfo

Код:Формат : AVI
Формат/Информация : Audio Video Interleave
Размер файла : 1,46 Гбайт
Продолжительность : 1 ч. 35 м.
Общий поток : 2174 Кбит/сек
Программа кодирования : VirtualDubMod 1.5.10.3 | www.virtualdub-fr.org || (build 2550/release)
Библиотека кодирования : VirtualDubMod build 2550/release
Видео
Идентификатор : 0
Формат : MPEG-4 Visual
Профиль формата : Advanced Simple@L5
Настройки формата : BVOP1 / Custom Matrix
Параметр BVOP формата : 1
Параметр QPel формата : Нет
Параметр GMC формата : Без точки перехода
Параметр матрицы формата : Выборочная
Идентификатор кодека : XVID
Идентификатор кодека/Подсказка : XviD
Продолжительность : 1 ч. 35 м.
Битрейт : 1973 Кбит/сек
Ширина : 720 пикселей
Высота : 304 пикселя
Соотношение сторон : 2,35:1
Частота кадров : 23,976 (24000/1001) кадра/сек
Цветовое пространство : YUV
Субдискретизация насыщенности : 4:2:0
Битовая глубина : 8 бит
Тип развёртки : Прогрессивная
Метод сжатия : С потерями
Бит/(Пиксели*Кадры) : 0.376
Размер потока : 1,32 Гбайт (91%)
Библиотека кодирования : XviD 73
Аудио
Идентификатор : 1
Формат : AC-3
Формат/Информация : Audio Coding 3
Коммерческое название : Dolby Digital
Идентификатор кодека : 2000
Продолжительность : 1 ч. 35 м.
Вид битрейта : Постоянный
Битрейт : 192 Кбит/сек
Каналы : 2 канала
Channel layout : L R
Частота : 48,0 КГц
Частота кадров : 31,250 кадров/сек (1536 SPF)
Битовая глубина : 16 бит
Метод сжатия : С потерями
Размер потока : 132 Мбайт (9%)
Выравнивание : Разделение по промежуткам
Продолжительность промежутка : 42 мс. (1,00 видеокадр)
Время предзагрузки промежутка : 500 мс.
ServiceKind/String : Complete Main

Скриншоты


[cybertorrent.ru].t1507.torrent 
Торрент: Зарегистрирован [ 2019-03-27 16:23 ] · 6AE7841E7462F47B8F7735955F093AF580AC5303

Скачать .torrent

Скачать

15 KB

Статус: проверено
Скачан: 0 раз
Размер: 1,46 GB
terms.php
Профиль ЛС
Показать сообщения:    

Текущее время: 20-Окт 00:22

Часовой пояс: UTC ± 0



Вы не можете начинать темы
Вы не можете отвечать на сообщения
Вы не можете редактировать свои сообщения
Вы не можете удалять свои сообщения
Вы не можете голосовать в опросах
Вы не можете прикреплять файлы к сообщениям
Вы можете скачивать файлы