Статистика раздачи
Размер:  28,66 GB   |    Зарегистрирован:  5 месяцев 5 дней   |    Скачан:  0 раз

Полного источника не было: Никогда

 
   
 
 

karapuz ®

Пол:
Не указан
Стаж:
5 месяцев 6 дней
Сообщений:
128

Новые фильмы о Скуби-Ду / The New Scooby-Doo Movies Страна: США
Жанр: Детектив, комедия
Продолжительность: 00:21:38
Год выпуска: 1972-1973
Перевод: Профессиональный (дублированный) от объединения Русский дубляж по заказу СТС в 2003 году
Русские субтитры: нет
Режиссёр: Ханна-Барбера / Hanna-Barbera
Роли озвучивали: Фрэнк Уэлкер, Кейси Касем, Грей Делайл, Минди Кон
Описание: Очаровательный и смешной пес по кличке Скуби Ду вместе со своим хозяином Шеги и друзьями: Вельмой, Дафни и Фредди постоянно попадают в удивительные приключения. Они расследуют мистические случаи похищения людей и собак, связанные с призраками, заброшенными замками и затерянными сокровищами. И не смотря на то, что Скуби Ду ужасно боится привидений, и думает исключительно о сухариках и собачьих консервах, он всегда оказывается победителем и успешно распутывает все эти загадочные происшествия.
Доп. информация: Специально для любителей качественного звука в папке Special находятся 13-я и 14-я серии со звуком Stereo, т.к. эти серии были показаны со звуком Mono.
Ссылка на предыдущие и альтернативные раздачи: http://cybertorrent.ru/tracker.php?nm=The%20New%20Scooby-Doo%20Movies
Семпл: http://multi-up.com/838363
Качество: DVB
Формат: MPG
Субтитры: Отсутствуют

Видео

Серии 2-6, 11, 13 (Stereo), 14 (Stereo), 20, 30:
MPEG2, 720x576, 25.000 fps, 3.971 Kbps
Остальные серии:
MPEG2, 720x576, 25.000 fps, 6.091 Kbps

Аудио

Серии 2-6, 11, 13 (Stereo), 14 (Stereo), 20, 30:
MP2, 44.1 KHz, 2 ch, 256 Kbps
Остальные серии:
MP2, 48.0 KHz, 2 ch, 192 Kbps

Список серий

Сезон 1:
01. Призрачный Город. Часть 1
02. Призрачный Город. Часть 2
03. Сегодня Скуби-Ду встречается с Бэтменом и Робином. Часть 1
04. Сегодня Скуби-Ду встречается с Бэтменом и Робином. Часть 2
05. Сегодня Скуби-Ду встречается с семейкой Адамс. Часть 1
06. Сегодня Скуби-Ду встречается с семейкой Адамс. Часть 2
07. Сегодня Скуби-Ду встречается с Джонатом Винтерсом. Часть 1
08. Сегодня Скуби-Ду встречается с Джонатом Винтерсом. Часть 2
09. Сегодня Скуби-Ду знакомится с Доном Кноттсом. Часть 1
10. Сегодня Скуби-Ду знакомится с Доном Кноттсом. Часть 2
11. Сегодня Скуби-Ду знакомится с Филлис Диллер. Часть 1
12. Сегодня Скуби-Ду знакомится с Филлис Диллер. Часть 2
13. Сегодня Скуби-Ду встречается с Сэнди Данкан. Часть 1
14. Сегодня Скуби-Ду встречается с Сэнди Данкан. Часть 2
15. Сегодня Скуби-Ду встречается с Санни и Шер. Часть 1
16. Сегодня Скуби-Ду встречается с Санни и Шер. Часть 2
17. Сегодня Скуби-Ду встречается с Доном Ноттсом. Часть 1
18. Сегодня Скуби-Ду встречается с Доном Ноттсом. Часть 2
19. Сегодня Скуби-Ду встречается с Лэрелом и Харди. Часть 1
20. Сегодня Скуби-Ду встречается с Лэрелом и Харди. Часть 2
21. Сегодня Скуби-Ду встречается с комиками. Часть 1
22. Сегодня Скуби-Ду встречается с комиками. Часть 2
23. Сегодня Скуби-Ду встречается с гарлемскими Глобтроттерсами. Часть 1
24. Сегодня Скуби-Ду встречается с гарлемскими Глобтроттерсами. Часть 2
25. Сегодня Скуби-Ду встречается с Дэви Джонсом. Часть 1
26. Сегодня Скуби-Ду встречается с Дэви Джонсом. Часть 2
27. Сегодня Скуби-Ду встречается с Джерри Ридом. Часть 1
28. Сегодня Скуби-Ду встречается с Джерри Ридом. Часть 2
29. Сегодня Скуби-Ду вновь встречается с Бэтменом и Робином. Часть 1
30. Сегодня Скуби-Ду вновь встречается с Бэтменом и Робином. Часть 2
31. Сегодня Скуби-Ду вновь встречается с гарлемскими Глобтроттерсами. Часть 1
32. Сегодня Скуби-Ду вновь встречается с гарлемскими Глобтроттерсами. Часть 2

Внимание! Раздача ведётся путём добавления новых серий

Внимание! Раздача ведётся путём добавления новых серий; при каждом добавлении создаётся новый торрент. Чтобы начать докачку новой серии, пользователям необходимо сделать следующее:
(1) остановить скачивание,
(2) удалить старый торрент у себя из клиента (старые серии удалять не надо),
(3) скачать новый торрент и запустить его у себя в клиенте вместо старого, при этом указать клиенту путь в старую папку куда и должно происходить скачивание новых серий.
Ваш клиент при этом должен произвести хеширование (проверку) старой папки (если не производит сам - помогите ему сделать это), и будет докачивать только те серии которых у вас ещё нет. Старые серии при этом не удаляются, а продолжают раздаваться!
Eсли вы уже удалили старые серии, то предотвратить повторную закачку старых серий можно, отжав галочку в соответствующих местах при запуске нового торрента. По возможности, желательно не удалять старые серии как можно дольше чтобы релизёр не столько продолжал раздавать старые серии, а смог сконцентрироваться на новых.

Подробные технические данные (Серии 2-6, 11, 13 (Stereo), 14 (Stereo), 20, 30)

General
Complete name : D:\IPTV\The New Scooby-Doo Movies\The New Scooby-Doo Movies.s01.e04.mpg
Format : MPEG-PS
File size : 618 MiB
Duration : 20mn 9s
Overall bit rate mode : Variable
Overall bit rate : 4 288 Kbps
Video
ID : 224 (0xE0)
Format : MPEG Video
Format version : Version 2
Format profile : Main@Main
Format settings, BVOP : Yes
Format settings, Matrix : Custom
Format settings, GOP : Variable
Duration : 20mn 9s
Bit rate mode : Variable
Bit rate : 3 971 Kbps
Width : 720 pixels
Height : 576 pixels
Display aspect ratio : 4:3
Frame rate : 25.000 fps
Standard : PAL
Color space : YUV
Chroma subsampling : 4:2:0
Bit depth : 8 bits
Scan type : Interlaced
Scan order : Top Field First
Compression mode : Lossy
Bits/(Pixel*Frame) : 0.383
Stream size : 569 MiB (92%)
Audio
ID : 192 (0xC0)
Format : MPEG Audio
Format version : Version 1
Format profile : Layer 2
Duration : 20mn 8s
Bit rate mode : Constant
Bit rate : 256 Kbps
Channel(s) : 2 channels
Sampling rate : 44.1 KHz
Compression mode : Lossy
Delay relative to video : -26ms
Stream size : 36.9 MiB (6%)

Подробные технические данные (Остальные серии)

General
Complete name : D:\IPTV\The New Scooby-Doo Movies\The New Scooby-Doo Movies.s01.e01.mpg
Format : MPEG-PS
File size : 993 MiB
Duration : 21mn 39s
Overall bit rate mode : Variable
Overall bit rate : 6 411 Kbps
Video
ID : 224 (0xE0)
Format : MPEG Video
Format version : Version 2
Format profile : Main@Main
Format settings, BVOP : Yes
Format settings, Matrix : Custom
Format settings, GOP : Variable
Duration : 21mn 39s
Bit rate mode : Variable
Bit rate : 6 091 Kbps
Maximum bit rate : 15.0 Mbps
Width : 720 pixels
Height : 576 pixels
Display aspect ratio : 4:3
Frame rate : 25.000 fps
Standard : PAL
Color space : YUV
Chroma subsampling : 4:2:0
Bit depth : 8 bits
Scan type : Interlaced
Scan order : Top Field First
Compression mode : Lossy
Bits/(Pixel*Frame) : 0.587
Stream size : 943 MiB (95%)
Audio
ID : 192 (0xC0)
Format : MPEG Audio
Format version : Version 1
Format profile : Layer 2
Duration : 21mn 39s
Bit rate mode : Constant
Bit rate : 192 Kbps
Channel(s) : 2 channels
Sampling rate : 48.0 KHz
Compression mode : Lossy
Delay relative to video : -2ms
Stream size : 29.7 MiB (3%)

Скриншоты

Серии 2-6, 11, 13 (Stereo), 14 (Stereo), 20, 30:

Остальные серии:
[cybertorrent.ru].t1510.torrent 
Торрент: Зарегистрирован [ 2018-02-16 06:54 ] · 94C250AD476E714600675D26B09C1992FA3EFFF1

Скачать .torrent

Скачать

146 KB

Статус: проверено
Скачан: 0 раз
Размер: 28,66 GB
Профиль [ЛС]
Показать сообщения:    

Текущее время: 21-Июл 11:42

Часовой пояс: UTC ± 0



Вы не можете начинать темы
Вы не можете отвечать на сообщения
Вы не можете редактировать свои сообщения
Вы не можете удалять свои сообщения
Вы не можете голосовать в опросах
Вы не можете прикреплять файлы к сообщениям
Вы можете скачивать файлы