Статистика раздачи
Размер:  6,8 GB   |    Зарегистрирован:  7 месяцев 20 дней   |    Скачан:  0 раз
DL-List: Нет

Полного источника не было: Никогда

 
     
 
 

MAGNAT ®

Пол:
Мужской
Стаж:
1 год 7 месяцев
Сообщений:
9096

Закон и порядок / Law & Order
Год выпуска: 1992
Страна: США
Жанр: детектив
Продолжительность серии: 47 минут
Перевод: субтитры от переводчиков limazulu, acefalcon, Alex_ander
Режиссёр: Дик Вульф
В ролях: Джерри Орбак, Крис Нот, Стивен Хилл, Дэнн Флорек и другие
Описание: Легендарная криминальная драма, двадцать сезонов удерживавшая внимание зрителей. В основу эпизодов положены самые противоречивые и громкие случаи американского судопроизводства. Сериал отличается почти документальным правдоподобием, глубиной изображаемых характеров и острой постановкой правовых и нравственных вопросов. Каждый эпизод условно делится на две равные части: полицейское расследование и судебное разбирательство дела.
Качество: DVDRip
Формат: AVI
Видео: XVID, 512x384 (4:3), 23.976 fps, 824 kbps
Аудио: AC-3, 48 kHz, 2 ch, 192 Кб/сек
Субтитры: русские отдельным файлом srt
Реклама: отсутствует

Список серий

S03E01 Skin Deep /Поверхностно
S03E02 Conspiracy/Сговор
S03E03 Forgiveness/Прощение
S03E04 The Corporate Veil/Корпоративная защита
S03E05 Wedded Bliss/Супружеское счастье
S03E06 Helpless/Беспомощная
S03E07 Self Defense/Самооборона
S03E08 Prince of Darkness/Князь тьмы
S03E09 Point of View/Точка зрения
S03E10 Consultation/Консультация
S03E11 Extended Family/Расширенная семья
S03E12 Right to Counsel/Право на адвоката
S03E13 Night and Fog/Ночь и туман
S03E14 Promises to Keep/Обещания
S03E15 Mother Love/Материнская любовь
S03E16 Jurisdiction/Юрисдикция
S03E17 Conduct Unbecoming/Недостойное поведение
S03E18 Animal Instinct/Животный инстинкт
S03E19 Virus/Вирус
S03E20 Securitate/Секуритате
S03E21 Manhood/Мужественность - нет в раздаче
S03E22 Benevolence/Человеколюбие - нет в раздаче

MediaInfo

General
Complete name : C:\Law_and_Order_S03\Law_and_Order_S03E01_Skin_Deep.avi
Format : AVI
Format/Info : Audio Video Interleave
File size : 348 MiB
Duration : 47 min 34 s
Overall bit rate : 1 023 kb/s
Writing application : VirtualDubMod 1.5.10.1 (build 2366/release)
Writing library : VirtualDubMod build 2366/release
Video
ID : 0
Format : MPEG-4 Visual
Format profile : Simple@L3
Format settings : BVOP4
Format settings, BVOP : 4
Format settings, QPel : No
Format settings, GMC : No warppoints
Format settings, Matrix : Default (H.263)
Codec ID : XVID
Codec ID/Hint : XviD
Duration : 47 min 34 s
Bit rate : 824 kb/s
Width : 576 pixels
Height : 432 pixels
Display aspect ratio : 4:3
Frame rate : 23.976 (24000/1001) FPS
Color space : YUV
Chroma subsampling : 4:2:0
Bit depth : 8 bits
Scan type : Progressive
Compression mode : Lossy
Bits/(Pixel*Frame) : 0.138
Stream size : 280 MiB (81%)
Writing library : XviD 1.1.0 Beta1 (UTC 2005-01-16)
Audio
ID : 1
Format : AC-3
Format/Info : Audio Coding 3
Commercial name : Dolby Digital
Codec ID : 2000
Duration : 47 min 34 s
Bit rate mode : Constant
Bit rate : 192 kb/s
Channel(s) : 2 channels
Channel layout : L R
Sampling rate : 48.0 kHz
Frame rate : 31.250 FPS (1536 SPF)
Compression mode : Lossy
Stream size : 65.3 MiB (19%)
Alignment : Split across interleaves
Interleave, duration : 96 ms (2.30 video frames)
Interleave, preload duratio : 500 ms
Service kind : Complete Main

Скриншоты

[cybertorrent.ru].t15148.torrent 
Торрент: Зарегистрирован [ 2020-04-06 20:50 ] · ED7F5ADB94DFAF5D050AD473419513499F376718

Скачать .torrent

Скачать

21 KB

Статус: проверено
Скачан: 0 раз
Размер: 6,8 GB  ·  Тип торрента
terms.php
Профиль [ЛС]
Показать сообщения:    

Текущее время: 27-Ноя 09:17

Часовой пояс: UTC ± 0



Вы не можете начинать темы
Вы не можете отвечать на сообщения
Вы не можете редактировать свои сообщения
Вы не можете удалять свои сообщения
Вы не можете голосовать в опросах
Вы не можете прикреплять файлы к сообщениям
Вы можете скачивать файлы