Статистика раздачи
Размер:  1,23 GB   |    Зарегистрирован:  6 месяцев 20 дней   |    Скачан:  0 раз

Полного источника не было: Никогда

   
 

Гость ®

Пол:
Не указан

Мамы чемпионов
Год выпуска: 2018
Производство: «Арт Пикчерс Вижн» при участии «Варвар Студио» по заказу телеканала СТС
Жанр: драма, спорт
Продолжительность: ~00:47:00 серия
Субтитры: нет
Режиссёр: Сергей Арланов
В ролях: Екатерина Вилкова, Ирина Розанова, Павел Трубинер, Мария Звонарёва, Григорий Верник, Нелли Неведина, Михаил Химичев, Мария Валешная, Руслан Ягудин, Ася Дубровская, Данил Акутин, Вячеслав Чепурченко, Софья Лукьянова
Описание: У 17-летней Веры было всё: золото на соревнованиях, любимый человек, обожаемый папа, мама — тренер по плаванию. Но после предательства мамы в один момент от Веры «уплыла» вся её успешная жизнь: девушка неожиданно покидает большой спорт и остаётся одна с ребёнком на руках. Спустя 15 лет, она успешный тренер, среди подопечных которой — её сын Кирилл. Только прошлое не отпускает Веру и преподносит заманчивое предложение. И теперь бывшей чемпионке придётся вновь столкнуться не только с коварством собственной матери, готовой пойти на всё ради больших побед, но и экс-парнем, возглавившим сборную страны по плаванию.

Реклама: Нет.
Кинопоиск
Все раздачи сериала
Sample
Качество: WEBRip 720p - Getty
Формат: MKV
Видео кодек: H.264
Аудио кодек: AC3
Видео: MPEG4 AVC Video, H264, 16:9, 1280x720, 25 fps, ~3500 kbps, 0.151 bit/pixel
Аудио: AC3, 48.0 kHz, 2/0 (L,R) ch, 192 kbps

Внимание! Раздача ведётся путём добавления новых серий

Раздача ведётся путём добавления новых серий, при каждом добавлении создаётся новый торрент. Чтобы начать докачку новой серии, пользователям необходимо сделать следующее:
- Остановить скачивание.
- Удалить старый торрент у себя из клиента (старые серии удалять не надо).
- Скачать новый торрент и запустить его у себя в клиенте вместо старого, при этом указать клиенту путь в старую папку куда и должно происходить скачивание новых серий.
Ваш клиент при этом должен произвести хеширование (проверку) старой папки (если не производит сам - помогите ему сделать это), и будет докачивать только те серии которых у вас ещё нет. Старые серии при этом не удаляются, а продолжают раздаваться!
Если вы уже удалили старые серии, то предотвратить повторную закачку старых серий можно, отжав галочку в соответствующих местах при запуске нового торрента. По возможности, желательно не удалять старые серии как можно дольше, чтобы релизер не столько продолжал раздавать старые серии, а смог сконцентрироваться на новых.

MI

General
Unique ID : 188199921634023605846869666277826422137 (0x8D95FC88AF0F738D94C1A3A7CE92E579)
Complete name : D:\Mamy.chempionov.2018.WEB-DL.(720p).Getty\Mamy.chempionov.e01.2018.WEB-DL.(720p).Getty.mkv
Format : Matroska
Format version : Version 2
File size : 1.23 GiB
Duration : 46 min 57 s
Overall bit rate mode : Variable
Overall bit rate : 3 742 kb/s
Encoded date : UTC 2019-03-27 09:09:35
Writing application : mkvmerge v4.0.0 ('The Stars were mine') сборка от Jun 6 2010 16:18:42
Writing library : libebml v1.0.0 + libmatroska v1.0.0
Video
ID : 1
Format : AVC
Format/Info : Advanced Video Codec
Format profile : High@L4.1
Format settings : CABAC / 5 Ref Frames
Format settings, CABAC : Yes
Format settings, ReFrames : 5 frames
Codec ID : V_MPEG4/ISO/AVC
Duration : 46 min 57 s
Bit rate mode : Variable
Bit rate : 3 476 kb/s
Maximum bit rate : 40.0 Mb/s
Width : 1 280 pixels
Height : 720 pixels
Display aspect ratio : 16:9
Frame rate mode : Constant
Frame rate : 25.000 FPS
Color space : YUV
Chroma subsampling : 4:2:0
Bit depth : 8 bits
Scan type : Progressive
Bits/(Pixel*Frame) : 0.151
Stream size : 1.14 GiB (93%)
Language : Russian
Default : Yes
Forced : No
Audio
ID : 2
Format : AC-3
Format/Info : Audio Coding 3
Codec ID : A_AC3
Duration : 46 min 57 s
Bit rate mode : Constant
Bit rate : 192 kb/s
Channel(s) : 2 channels
Channel positions : Front: L R
Sampling rate : 48.0 kHz
Frame rate : 31.250 FPS (1536 SPF)
Bit depth : 16 bits
Compression mode : Lossy
Stream size : 64.5 MiB (5%)
Language : Russian
Service kind : Complete Main
Default : Yes
Forced : No

Скриншоты


[cybertorrent.ru].t1515.torrent 
Торрент: Зарегистрирован [ 2019-03-27 16:23 ] · C90D425D2C057BCBD598A1B85DC543F3BD1D2D17

Скачать .torrent

Скачать

13 KB

Статус: проверено
Скачан: 0 раз
Размер: 1,23 GB
terms.php
Показать сообщения:    

Текущее время: 17-Окт 07:50

Часовой пояс: UTC ± 0



Вы не можете начинать темы
Вы не можете отвечать на сообщения
Вы не можете редактировать свои сообщения
Вы не можете удалять свои сообщения
Вы не можете голосовать в опросах
Вы не можете прикреплять файлы к сообщениям
Вы можете скачивать файлы