Статистика раздачи
Размер:  918 MB   |    Зарегистрирован:  1 месяц 26 дней   |    Скачан:  0 раз
DL-List: Нет

Полного источника не было: Никогда

 
     
 
 

MAGNAT ®

Пол:
Мужской
Стаж:
1 год 2 месяца
Сообщений:
7949

Скуби-Ду и пляжный монстр / Scooby-Doo! and The Beach Beastie
Страна: США
Жанр: Мультипликация
Продолжительность: 00:21:30
Год выпуска: 2015
Перевод: Профессиональный (дублированный)
Русские субтитры: нет-Режиссёр: Виктор Кук / Victor Cook
Роли озвучивали: Джули Боуэн, Лейси Чаберт, Минди Кон, Грэй Гриффин, Фил ЛаМарр, Мэттью Лиллард, Алан Рачинс, Пол Рубенс, Фрэнк Уэлкер-Описание: Для команды Скуби жизнь никогда не казалась днем на пляже. Поэтому, отправившись отдохнуть на курорт во Флориде, они наслаждаются солнцем, песком и... монстром.-Качество: HDTVRip 1080
Формат: MKV
Видео: AVC, 1920x1080 (16:9), 25.000 fps, 5 587 kb/s (0.108 bit/pixel)
Аудио 1: AC-3, 48.0 kHz, 2 ch, 192 kb/s, CBR (Russian)
Аудио 2: AC-3, 48.0 kHz, 2 ch, 192 kb/s, CBR (English)
Субтитры: отсутствуют
Семпл: Забираем тут

Подробные технические данные

Общее
Уникальный идентификатор : 223379328646403205460193031470603163689 (0xA80D4B367567E2C58E989A037C95D829)
Полное имя : Scooby-Doo! and The Beach Beastie HDTVRip 1080.mkv
Формат : Matroska
Версия формата : Version 4 / Version 2
Размер файла : 918 Мбайт
Продолжительность : 21 м.
Общий поток : 5973 Кбит/сек
Дата кодирования : UTC 2019-07-04 08:59:05
Программа кодирования : mkvmerge v15.0.0 ('Duel with the Devil') 64-bit
Библиотека кодирования : libebml v1.3.5 + libmatroska v1.4.5
Видео
Идентификатор : 1
Формат : AVC
Формат/Информация : Advanced Video Codec
Профиль формата : High@L4.1
Параметр CABAC формата : Да
Параметр ReFrames формата : 4 кадра
Идентификатор кодека : V_MPEG4/ISO/AVC
Продолжительность : 21 м.
Битрейт : 5587 Кбит/сек
Ширина : 1920 пикселей
Высота : 1080 пикселей
Соотношение сторон : 16:9
Режим частоты кадров : Постоянный
Частота кадров : 25,000 кадров/сек
Цветовое пространство : YUV
Субдискретизация насыщенности : 4:2:0
Битовая глубина : 8 бит
Тип развёртки : Прогрессивная
Бит/(Пиксели*Кадры) : 0.108
Размер потока : 859 Мбайт (94%)
Библиотека кодирования : x264 core 146 r2538 121396c
Настройки программы : cabac=1 / ref=4 / deblock=1:0:0 / analyse=0x3:0x133 / me=umh / subme=10 / psy=1 / psy_rd=1.00:0.00 / mixed_ref=1 / me_range=32 / chroma_me=1 / trellis=2 / 8x8dct=1 / cqm=0 / deadzone=21,11 / fast_pskip=0 / chroma_qp_offset=-2 / threads=6 / lookahead_threads=1 / sliced_threads=0 / nr=0 / decimate=0 / interlaced=0 / bluray_compat=0 / constrained_intra=0 / bframes=4 / b_pyramid=2 / b_adapt=2 / b_bias=0 / direct=3 / weightb=1 / open_gop=0 / weightp=2 / keyint=250 / keyint_min=25 / scenecut=40 / intra_refresh=0 / rc_lookahead=40 / rc=2pass / mbtree=1 / bitrate=5587 / ratetol=1.0 / qcomp=0.60 / qpmin=0 / qpmax=69 / qpstep=4 / cplxblur=20.0 / qblur=0.5 / ip_ratio=1.40 / aq=1:0.80
Язык : English
Default : Да
Forced : Нет
Аудио #1
Идентификатор : 2
Формат : AC-3
Формат/Информация : Audio Coding 3
Расширение режима : CM (complete main)
Параметр Endianness формата : Big
Идентификатор кодека : A_AC3
Продолжительность : 21 м.
Вид битрейта : Постоянный
Битрейт : 192 Кбит/сек
Каналы : 2 канала
Расположение каналов : Front: L R
Частота : 48,0 КГц
Частота кадров : 31,250 кадров/сек (1536 spf)
Метод сжатия : С потерями
Размер потока : 29,5 Мбайт (3%)
Язык : Russian
Default : Да
Forced : Нет
Аудио #2
Идентификатор : 3
Формат : AC-3
Формат/Информация : Audio Coding 3
Расширение режима : CM (complete main)
Параметр Endianness формата : Big
Идентификатор кодека : A_AC3
Продолжительность : 21 м.
Вид битрейта : Постоянный
Битрейт : 192 Кбит/сек
Каналы : 2 канала
Расположение каналов : Front: L R
Частота : 48,0 КГц
Частота кадров : 31,250 кадров/сек (1536 spf)
Метод сжатия : С потерями
Размер потока : 29,5 Мбайт (3%)
Язык : English
Default : Нет
Forced : Нет

Скриншоты


[cybertorrent.ru].t15198.torrent 
Торрент: Зарегистрирован [ 2020-04-07 18:28 ] · 3BAD7A4A741960ABB68199B6F150E05F1FBB203C

Скачать .torrent

Скачать

18 KB

Статус: проверено
Скачан: 0 раз
Размер: 918 MB  ·  Тип торрента
terms.php
Профиль [ЛС]
Показать сообщения:    

Текущее время: 03-Июн 22:00

Часовой пояс: UTC ± 0



Вы не можете начинать темы
Вы не можете отвечать на сообщения
Вы не можете редактировать свои сообщения
Вы не можете удалять свои сообщения
Вы не можете голосовать в опросах
Вы не можете прикреплять файлы к сообщениям
Вы можете скачивать файлы