Статистика раздачи
Размер:  156 MB   |    Зарегистрирован:  1 месяц 24 дня   |    Скачан:  0 раз
DL-List: Нет

Полного источника не было: Никогда

 
     
 
 

MAGNAT ®

Пол:
Мужской
Стаж:
1 год 2 месяца
Сообщений:
7925

О старом псе Бодрике / O starém psu Bodříkovi
Страна: Чехословакия
Жанр: мультфильм
Продолжительность: 00:09:48
Год выпуска: 1969
Перевод: не требуется
Русские субтитры: нет
Режиссёр: Франтишек Браун / František Braun
Описание: История про старого верного пса, которого хозяин однажды решил заменить на молодого...
Качество: TVRip
Формат: AVI
Видео: 2089 kbps, 656х512 (1.281), 25.000 fps, MPEG-4 Visual (XviD)
Аудио: 128 kbps, 48.0 kHz, 2 channels, MPEG Audio (MP3)
Субтитры: отсутствуют

Подробные технические данные

General
Complete name : O starem psu Bodrikovi (1969).avi
Format : AVI
Format/Info : Audio Video Interleave
File size : 156 MiB
Duration : 9mn 48s
Overall bit rate : 2 227 Kbps
Writing application : Lavf52.17.0
Writing library : VirtualDub build 35491/release
Video
ID : 0
Format : MPEG-4 Visual
Format profile : Advanced Simple@L5
Format settings, BVOP : 2
Format settings, QPel : No
Format settings, GMC : No warppoints
Format settings, Matrix : Default (H.263)
Codec ID : XVID
Codec ID/Hint : XviD
Duration : 9mn 48s
Bit rate : 2 089 Kbps
Width : 656 pixels
Height : 512 pixels
Display aspect ratio : 1.281
Frame rate : 25.000 fps
Color space : YUV
Chroma subsampling : 4:2:0
Bit depth : 8 bits
Scan type : Progressive
Compression mode : Lossy
Bits/(Pixel*Frame) : 0.249
Stream size : 147 MiB (94%)
Writing library : XviD 73
Audio
ID : 1
Format : MPEG Audio
Format version : Version 1
Format profile : Layer 3
Mode : Joint stereo
Mode extension : MS Stereo
Codec ID : 55
Codec ID/Hint : MP3
Duration : 9mn 48s
Bit rate mode : Constant
Bit rate : 128 Kbps
Channel(s) : 2 channels
Sampling rate : 48.0 KHz
Compression mode : Lossy
Stream size : 8.98 MiB (6%)
Alignment : Split accross interleaves
Interleave, duration : 40 ms (1.00 video frame)
Interleave, preload duration : 500 ms

Скриншоты

[cybertorrent.ru].t15202.torrent 
Торрент: Зарегистрирован [ 2020-04-07 19:01 ] · 64CEAA23F247AF6D518DFD2E33DB3C1F8C25DD5E

Скачать .torrent

Скачать

13 KB

Статус: проверено
Скачан: 0 раз
Размер: 156 MB  ·  Тип торрента
terms.php
Профиль [ЛС]
Показать сообщения:    

Текущее время: 01-Июн 17:10

Часовой пояс: UTC ± 0



Вы не можете начинать темы
Вы не можете отвечать на сообщения
Вы не можете редактировать свои сообщения
Вы не можете удалять свои сообщения
Вы не можете голосовать в опросах
Вы не можете прикреплять файлы к сообщениям
Вы можете скачивать файлы