Статистика раздачи
Размер:  165 MB   |    Зарегистрирован:  1 месяц 26 дней   |    Скачан:  0 раз
DL-List: Нет

Полного источника не было: Никогда

 
     
 
 

MAGNAT ®

Пол:
Мужской
Стаж:
1 год 2 месяца
Сообщений:
7949

Курево / The Drag
Страна: Канада
Жанр: мультфильм для взрослых
Продолжительность: 00:08:47
Год выпуска: 1965
Перевод: субтитры (alex.n42)
Русские субтитры: есть
Режиссёр: Карлос Марчиори / Carlos Marchiori
Описание: Сатирический фильм о вреде курения, представляющий исповедь заядлого курильщика на кушетке психиатора.
Доп. информация:
Номинация на "Пальмовую ветвь" в Каннах (1966)
Номинация на "Оскар" (1967)
Качество: WEBRip-AVC
Формат: MP4
Видео: 2424 kbps, 960х720 (4:3), 24.000 fps, AVC (High@L3.1)
Аудио: 192 kbps, 44.1 kHz, 2 channels, AAC (LC)
Субтитры: softsub (SRT)

Подробные технические данные

General
Complete name : The Drag (1965).mp4
Format : MPEG-4
Format profile : Base Media / Version 2
Codec ID : mp42
File size : 165 MiB
Duration : 8mn 47s
Overall bit rate mode : Variable
Overall bit rate : 2 618 Kbps
Encoded date : UTC 2015-07-07 23:06:53
Tagged date : UTC 2015-07-07 23:06:53
gsst : 0
gstd : 527928
gssd : B4A7DDAE5MM1437745951245521
gshh : r5---sn-4g57kuer.googlevideo.com
Video
ID : 1
Format : AVC
Format/Info : Advanced Video Codec
Format profile : High@L3.1
Format settings, CABAC : Yes
Format settings, ReFrames : 1 frame
Format settings, GOP : M=1, N=60
Codec ID : avc1
Codec ID/Info : Advanced Video Coding
Duration : 8mn 47s
Bit rate : 2 424 Kbps
Maximum bit rate : 7 423 Kbps
Width : 960 pixels
Height : 720 pixels
Display aspect ratio : 4:3
Frame rate mode : Constant
Frame rate : 24.000 fps
Color space : YUV
Chroma subsampling : 4:2:0
Bit depth : 8 bits
Scan type : Progressive
Bits/(Pixel*Frame) : 0.146
Stream size : 153 MiB (93%)
Tagged date : UTC 2015-07-07 23:06:56
Audio
ID : 2
Format : AAC
Format/Info : Advanced Audio Codec
Format profile : LC
Codec ID : 40
Duration : 8mn 47s
Bit rate mode : Variable
Bit rate : 192 Kbps
Maximum bit rate : 201 Kbps
Channel(s) : 2 channels
Channel positions : Front: L R
Sampling rate : 44.1 KHz
Compression mode : Lossy
Stream size : 12.1 MiB (7%)
Title : IsoMedia File Produced by Google, 5-11-2011
Encoded date : UTC 2015-07-07 23:06:55
Tagged date : UTC 2015-07-07 23:06:56

Скриншоты

Пример субтитров

1
00:00:15,960 --> 00:00:20,400
КУРЕВО
2
00:00:44,420 --> 00:00:48,260
Конечно, я расскажу, доктор.
Но вы должны что-нибудь сделать,
чтобы я бросил.
3
00:00:48,970 --> 00:00:51,800
Я больше не могу это терпеть.
Жизнь не стоит того, чтобы жить.
4
00:00:52,370 --> 00:00:56,800
Я думал, со мной такого не случится.
Ведь это начинается постепенно,
а потом уже поздно.
5
00:00:57,690 --> 00:01:03,010
Почему это произошло со мной?
Я же был такой нормальный ребёнок.
6
00:01:41,250 --> 00:01:44,440
Позже последовало
обычное посвящение в братство.
7
00:01:45,160 --> 00:01:49,870
Я действительно хотел вступить.
Я бы сделал всё, чтоб быть одним из них.
8
00:02:01,890 --> 00:02:06,470
Будучи подростком, я испытывал
классический комплекс неполноценности.
9
00:02:13,900 --> 00:02:17,700
Что было у всех остальных,
и чего у меня не было.
10
00:02:17,720 --> 00:02:18,100
Сначала я не мог видеть это.
11
00:02:46,220 --> 00:02:49,300
А потом всё стало на места.
12
00:02:49,470 --> 00:02:52,050
Я открыл секретную формулу успеха.
13
00:02:53,240 --> 00:02:56,390
Несколько затяжек
и жизнь пошла на одном дыхании.
14
00:04:02,200 --> 00:04:06,200
Я с новой уверенностью окунулся в мир,
15
00:04:06,360 --> 00:04:09,900
и вокруг меня были
обещания ещё больших удовольствий.
[cybertorrent.ru].t15203.torrent 
Торрент: Зарегистрирован [ 2020-04-07 19:02 ] · DDA8DDA27E1DE5DB54DD9D350CCB621A6F0ED795

Скачать .torrent

Скачать

13 KB

Статус: проверено
Скачан: 0 раз
Размер: 165 MB  ·  Тип торрента
terms.php
Профиль [ЛС]
Показать сообщения:    

Текущее время: 03-Июн 22:24

Часовой пояс: UTC ± 0



Вы не можете начинать темы
Вы не можете отвечать на сообщения
Вы не можете редактировать свои сообщения
Вы не можете удалять свои сообщения
Вы не можете голосовать в опросах
Вы не можете прикреплять файлы к сообщениям
Вы можете скачивать файлы