Статистика раздачи
Размер:  83 MB   |    Зарегистрирован:  3 месяца   |    Скачан:  0 раз
DL-List: Нет

Полного источника не было: Никогда

 
     
 
 

MAGNAT ®

Пол:
Мужской
Стаж:
1 год 3 месяца
Сообщений:
8784

Маделайн / Madeline
Страна: США
Жанр: мультфильм, экранизация
Продолжительность: 00:06:40
Год выпуска: 1952
Перевод: субтитры (alex.n42)
Русские субтитры: есть
Режиссёр: Роберт Кэннон / Robert Cannon
Текст читает: Глэдис Холланд / Gladys Holland
Описание: По стихотворной книжке Людвига Бемельманса.
Про шуструю девочку Маделайн - одну из воспитанниц католической школы-интерната в Париже.
Доп. информация: Номинация на "Оскар" (1953)
Качество: WEBRip
Формат: AVI
Видео: 1598 kbps, 640х480 (4:3), 24.000 fps, MPEG-4 Visual (XviD)
Аудио: 128 kbps, 44.1 kHz, 2 channels, MPEG Audio (MP3)
Субтитры: softsub (SRT)

Подробные технические данные

General
Complete name : Madeline (1952).avi
Format : AVI
Format/Info : Audio Video Interleave
File size : 82.9 MiB
Duration : 6mn 40s
Overall bit rate : 1 738 Kbps
Writing application : Lavf58.12.100
Writing library : VirtualDub build 35491/release
Video
ID : 0
Format : MPEG-4 Visual
Format profile : Advanced Simple@L5
Format settings, BVOP : 2
Format settings, QPel : No
Format settings, GMC : No warppoints
Format settings, Matrix : Default (H.263)
Codec ID : XVID
Codec ID/Hint : XviD
Duration : 6mn 40s
Bit rate : 1 598 Kbps
Width : 640 pixels
Height : 480 pixels
Display aspect ratio : 4:3
Frame rate : 24.000 fps
Color space : YUV
Chroma subsampling : 4:2:0
Bit depth : 8 bits
Scan type : Progressive
Compression mode : Lossy
Bits/(Pixel*Frame) : 0.217
Stream size : 76.2 MiB (92%)
Writing library : XviD 73
Audio
ID : 1
Format : MPEG Audio
Format version : Version 1
Format profile : Layer 3
Mode : Joint stereo
Mode extension : MS Stereo
Codec ID : 55
Codec ID/Hint : MP3
Duration : 6mn 40s
Bit rate mode : Constant
Bit rate : 128 Kbps
Channel(s) : 2 channels
Sampling rate : 44.1 KHz
Compression mode : Lossy
Stream size : 6.11 MiB (7%)
Alignment : Aligned on interleaves
Interleave, duration : 26 ms (0.63 video frame)
Interleave, preload duration : 522 ms
Writing library : LAME3.99.5

Скриншоты

Пример субтитров

1
00:00:09,120 --> 00:00:13,550
МАДЕЛАЙН
2
00:00:33,830 --> 00:00:36,770
В Париже, в старом доме,
увитом лозами,
3
00:00:38,450 --> 00:00:41,250
жили двенадцать маленьких девочек,
строившихся в два ряда.
4
00:00:43,110 --> 00:00:45,250
В два ряда они ели свой хлеб,
5
00:00:47,980 --> 00:00:49,000
и чистили зубы
6
00:00:51,460 --> 00:00:52,500
и ложились спать.
7
00:01:01,000 --> 00:01:03,050
Они выходили из дома
в половине десятого
8
00:01:03,070 --> 00:01:04,990
всегда в два ряда
9
00:01:07,400 --> 00:01:08,490
в дождь
10
00:01:12,880 --> 00:01:13,900
и в солнце.
11
00:01:23,450 --> 00:01:24,910
Улыбались хорошему
12
00:01:34,480 --> 00:01:35,920
и хмурились плохому.
13
00:01:41,050 --> 00:01:46,740
Все в Париже знали
двенадцать маленьких девочек,
ходивших в два ряда.
[cybertorrent.ru].t15205.torrent 
Торрент: Зарегистрирован [ 2020-04-07 19:03 ] · 591C1D5CBE7AB13753C3180B879A7B6712CDDDA3

Скачать .torrent

Скачать

14 KB

Статус: проверено
Скачан: 0 раз
Размер: 83 MB  ·  Тип торрента
terms.php
Профиль [ЛС]
Показать сообщения:    

Текущее время: 08-Июл 03:38

Часовой пояс: UTC ± 0



Вы не можете начинать темы
Вы не можете отвечать на сообщения
Вы не можете редактировать свои сообщения
Вы не можете удалять свои сообщения
Вы не можете голосовать в опросах
Вы не можете прикреплять файлы к сообщениям
Вы можете скачивать файлы