Статистика раздачи
Размер:  98 MB   |    Зарегистрирован:  1 месяц 26 дней   |    Скачан:  0 раз
DL-List: Нет

Полного источника не было: Никогда

 
     
 
 

MAGNAT ®

Пол:
Мужской
Стаж:
1 год 2 месяца
Сообщений:
7949

Котбуль / Kitbull
Страна: США
Жанр: мультфильм
Продолжительность: 00:08:50
Год выпуска: 2019
Перевод: не требуется
Русские субтитры: нет
Режиссёр: Розана Салливан / Rosana Sullivan
Описание: История про то, как маленький бездомный котёнок и щенок-бультерьер неожиданно стали соседями...
Доп. информация: Номинация на "Оскар" (2020)
Качество: WEBRip
Формат: AVI
Видео: 1404 kbps, 720х304 (2.35:1), 23.976 fps, MPEG-4 Visual (XviD)
Аудио: 128 kbps, 44.1 kHz, 2 channels, MPEG Audio (MP3)
Субтитры: отсутствуют

Подробные технические данные

General
Complete name : Kitbull (2019).avi
Format : AVI
Format/Info : Audio Video Interleave
File size : 97.6 MiB
Duration : 8mn 50s
Overall bit rate : 1 542 Kbps
Writing application : VirtualDubMod 1.5.10.2 (build 2540/release)
Writing library : VirtualDub build 35491/release
Video
ID : 0
Format : MPEG-4 Visual
Format profile : Advanced Simple@L5
Format settings, BVOP : 2
Format settings, QPel : No
Format settings, GMC : No warppoints
Format settings, Matrix : Default (H.263)
Codec ID : XVID
Codec ID/Hint : XviD
Duration : 8mn 50s
Bit rate : 1 404 Kbps
Width : 720 pixels
Height : 304 pixels
Display aspect ratio : 2.35:1
Frame rate : 23.976 fps
Color space : YUV
Chroma subsampling : 4:2:0
Bit depth : 8 bits
Scan type : Progressive
Compression mode : Lossy
Bits/(Pixel*Frame) : 0.268
Stream size : 88.8 MiB (91%)
Writing library : XviD 73
Audio
ID : 1
Format : MPEG Audio
Format version : Version 1
Format profile : Layer 3
Codec ID : 55
Codec ID/Hint : MP3
Duration : 8mn 50s
Bit rate mode : Constant
Bit rate : 128 Kbps
Channel(s) : 2 channels
Sampling rate : 44.1 KHz
Compression mode : Lossy
Stream size : 8.10 MiB (8%)
Alignment : Split accross interleaves
Interleave, duration : 42 ms (1.00 video frame)
Interleave, preload duration : 500 ms
Writing library : LAME3.99.5

Скриншоты

[cybertorrent.ru].t15209.torrent 
Торрент: Зарегистрирован [ 2020-04-07 19:07 ] · 26AA7ED11FD2E5C96DFA97094B84DA6D699AD9D1

Скачать .torrent

Скачать

16 KB

Статус: проверено
Скачан: 0 раз
Размер: 98 MB  ·  Тип торрента
terms.php
Профиль [ЛС]
Показать сообщения:    

Текущее время: 03-Июн 21:20

Часовой пояс: UTC ± 0



Вы не можете начинать темы
Вы не можете отвечать на сообщения
Вы не можете редактировать свои сообщения
Вы не можете удалять свои сообщения
Вы не можете голосовать в опросах
Вы не можете прикреплять файлы к сообщениям
Вы можете скачивать файлы