Статистика раздачи
Размер:  99 MB   |    Зарегистрирован:  1 месяц 26 дней   |    Скачан:  0 раз
DL-List: Нет

Полного источника не было: Никогда

 
     
 
 

MAGNAT ®

Пол:
Мужской
Стаж:
1 год 2 месяца
Сообщений:
7949

Тот, кто не ест ложкой / Eb, aki a kanalát meg nem eszi
Страна: Венгрия
Жанр: мультфильм
Продолжительность: 00:06:51
Год выпуска: 1977
Перевод: субтитры (alex.n42)
Русские субтитры: есть
Режиссёры: Марцелл Янкович / Marcell Jankovics, Элек Лисияк / Elek Lisziák
Текст читает: Ласло Банхиди / László Bánhidi
Описание: Сказка про короля Матьяша и находчивого пастуха.
Доп. информация: Цикл "Венгерские сказки" / "Magyar Népmesék" снимался для венгерского телевидения с 1977 по 2011 год. За это время в производстве поучаствовали 23 режиссёра, многие эпизоды режиссировал мэтр венгерской анимации Марцелл Янкович. Полный цикл состоит из 100 мультфильмов.
Качество: DVDRip
Формат: AVI
Видео: 1888 kbps, 640х480 (4:3), 25.000 fps, MPEG-4 Visual (XviD)
Аудио: Magyar, 128 kbps, 44.1 kHz, 2 channels, MPEG Audio (MP3)
Субтитры: softsub (SRT)

Подробные технические данные

General
Complete name : Eb, aki a kanalat meg nem eszi (1977).avi
Format : AVI
Format/Info : Audio Video Interleave
File size : 99.4 MiB
Duration : 6mn 51s
Overall bit rate : 2 025 Kbps
Writing application : VirtualDubMod 1.5.10.2 (build 2540/release)
Writing library : VirtualDubMod build 2540/release
Video
ID : 0
Format : MPEG-4 Visual
Format profile : Advanced Simple@L5
Format settings, BVOP : 2
Format settings, QPel : No
Format settings, GMC : No warppoints
Format settings, Matrix : Default (H.263)
Codec ID : XVID
Codec ID/Hint : XviD
Duration : 6mn 51s
Bit rate : 1 888 Kbps
Width : 640 pixels
Height : 480 pixels
Display aspect ratio : 4:3
Frame rate : 25.000 fps
Color space : YUV
Chroma subsampling : 4:2:0
Bit depth : 8 bits
Scan type : Progressive
Compression mode : Lossy
Bits/(Pixel*Frame) : 0.246
Stream size : 92.7 MiB (93%)
Writing library : XviD 73
Audio
ID : 1
Format : MPEG Audio
Format version : Version 1
Format profile : Layer 3
Codec ID : 55
Codec ID/Hint : MP3
Duration : 6mn 51s
Bit rate mode : Constant
Bit rate : 128 Kbps
Channel(s) : 2 channels
Sampling rate : 44.1 KHz
Compression mode : Lossy
Stream size : 6.28 MiB (6%)
Alignment : Split accross interleaves
Interleave, duration : 40 ms (1.00 video frame)
Interleave, preload duration : 500 ms

Скриншоты

Пример субтитров

1
00:00:16,900 --> 00:00:19,950
ВЕНГЕРСКИЕ СКАЗКИ
2
00:00:21,900 --> 00:00:24,130
ТОТ, КТО НЕ ЕСТ ЛОЖКОЙ
3
00:00:30,600 --> 00:00:34,550
Давным-давно, в наших краях,
правил король Матьяш.
4
00:00:34,620 --> 00:00:45,050
Если верить старым преданиям,
король Матьяш хотел лично видеть,
как живут в стране его люди.
5
00:00:45,840 --> 00:00:53,770
Он одевался в одежду простого нищего,
бродил по земле, и говорил
с простыми людьми, как с равными.
6
00:00:58,490 --> 00:01:04,950
Однажды он оказался в снежной долине,
где стоял лишь одинокий домик пастуха.
7
00:01:05,620 --> 00:01:10,380
Была середина зимы, поэтому пастух
пригласил нищего в свой дом,
8
00:01:10,400 --> 00:01:12,740
не ведая, кто это на самом деле.
9
00:01:13,080 --> 00:01:18,380
Он дал ему ещё и еды в дорогу,
а король Матьяш записал имя хозяина
на своём посохе,
10
00:01:18,950 --> 00:01:21,820
попрощался с добрым пастухом
и вернулся во дворец.
11
00:01:21,860 --> 00:01:29,080
У пастуха был чёрный пёс,
такой верный, что старик
никогда с ним не расставался.
12
00:01:36,400 --> 00:01:47,320
Летом король Матьяш отправил
пастуху письмо, пригласив во дворец
и пастуха, и его пса.
13
00:01:47,780 --> 00:01:50,330
Но там не говорилось,
зачем их приглашают.
14
00:02:07,290 --> 00:02:12,200
И вот пастух хорошо оделся,
взял в руку свой посох
15
00:02:12,480 --> 00:02:15,500
и отправился вместе с псом
в королевский дворец.
[cybertorrent.ru].t15210.torrent 
Торрент: Зарегистрирован [ 2020-04-07 19:07 ] · 93167C729BE76FFF6A7AAF65E7CB0637B3C2F961

Скачать .torrent

Скачать

16 KB

Статус: проверено
Скачан: 0 раз
Размер: 99 MB  ·  Тип торрента
terms.php
Профиль [ЛС]
Показать сообщения:    

Текущее время: 03-Июн 21:37

Часовой пояс: UTC ± 0



Вы не можете начинать темы
Вы не можете отвечать на сообщения
Вы не можете редактировать свои сообщения
Вы не можете удалять свои сообщения
Вы не можете голосовать в опросах
Вы не можете прикреплять файлы к сообщениям
Вы можете скачивать файлы