Статистика раздачи
Размер:  29 MB   |    Зарегистрирован:  1 месяц 26 дней   |    Скачан:  0 раз
DL-List: Нет

Полного источника не было: Никогда

 
     
 
 

MAGNAT ®

Пол:
Мужской
Стаж:
1 год 2 месяца
Сообщений:
7949

Мистер Тао / Mister Tao
Страна: Италия
Жанр: мультфильм
Продолжительность: 00:02:36
Год выпуска: 1988
Перевод: не требуется
Русские субтитры: нет
Режиссёр: Бруно Боццетто / Bruno Bozzetto
Описание: Шуточная притча о человеке, идущем вверх.
Качество: WEBRip
Формат: AVI
Видео: 1376 kbps, 640х496 (1.290), 25.000 fps, MPEG-4 Visual (XviD)
Аудио: 192 kbps, 48.0 kHz, 16 bits, 2 channels, AC-3
Субтитры: отсутствуют

Подробные технические данные

General
Complete name : Mister Tao (1988).avi
Format : AVI
Format/Info : Audio Video Interleave
File size : 29.4 MiB
Duration : 2mn 36s
Overall bit rate : 1 579 Kbps
Writing application : Lavf55.19.104
Writing library : VirtualDub build 35491/release
Video
ID : 0
Format : MPEG-4 Visual
Format profile : Advanced Simple@L5
Format settings, BVOP : 2
Format settings, QPel : No
Format settings, GMC : No warppoints
Format settings, Matrix : Default (H.263)
Codec ID : XVID
Codec ID/Hint : XviD
Duration : 2mn 36s
Bit rate : 1 376 Kbps
Width : 640 pixels
Height : 496 pixels
Display aspect ratio : 1.290
Frame rate : 25.000 fps
Color space : YUV
Chroma subsampling : 4:2:0
Bit depth : 8 bits
Scan type : Progressive
Compression mode : Lossy
Bits/(Pixel*Frame) : 0.173
Stream size : 25.6 MiB (87%)
Writing library : XviD 73
Audio
ID : 1
Format : AC-3
Format/Info : Audio Coding 3
Mode extension : CM (complete main)
Format settings, Endianness : Big
Codec ID : 2000
Duration : 2mn 36s
Bit rate mode : Constant
Bit rate : 192 Kbps
Channel(s) : 2 channels
Channel positions : Front: L R
Sampling rate : 48.0 KHz
Bit depth : 16 bits
Compression mode : Lossy
Stream size : 3.58 MiB (12%)
Alignment : Aligned on interleaves
Interleave, duration : 32 ms (0.80 video frame)
Interleave, preload duration : 512 ms

Скриншоты

[cybertorrent.ru].t15212.torrent 
Торрент: Зарегистрирован [ 2020-04-07 19:09 ] · 3A49831F76C0817BBABAB0025E6799E2C852CD3E

Скачать .torrent

Скачать

19 KB

Статус: проверено
Скачан: 0 раз
Размер: 29 MB  ·  Тип торрента
terms.php
Профиль [ЛС]
Показать сообщения:    

Текущее время: 03-Июн 22:45

Часовой пояс: UTC ± 0



Вы не можете начинать темы
Вы не можете отвечать на сообщения
Вы не можете редактировать свои сообщения
Вы не можете удалять свои сообщения
Вы не можете голосовать в опросах
Вы не можете прикреплять файлы к сообщениям
Вы можете скачивать файлы