Статистика раздачи
Размер:  45 MB   |    Зарегистрирован:  1 месяц 26 дней   |    Скачан:  0 раз
DL-List: Нет

Полного источника не было: Никогда

 
     
 
 

MAGNAT ®

Пол:
Мужской
Стаж:
1 год 2 месяца
Сообщений:
7949

Лучший друг / Best friend
Страна: Франция
Жанр: мультфильм для взрослых
Продолжительность: 00:05:46
Год выпуска: 2018
Перевод: субтитры (alex.n42)
Русские субтитры: есть
Режиссёры: Николя Оливери, Шен Ии, Жюлиана Де Люкка, Давид Фели / Nicholas Olivieri, Shen Yi, Juliana De Lucca, David Feliu
Описание: Действие фильма происходит в будущем, когда технологии позволяют решать проблему одиночества путём инъекции воображаемых друзей прямо в мозг. Но капсулы с виртуальной дружбой имеют кратковременное действие и вызывают острую зависимость...
Качество: WEBRip-AVC
Формат: MP4
Видео: 937 kbps, 1280х720 (16:9), 25.000 fps, AVC (High@L3.1)
Аудио: 137 kbps, 48.0 kHz, 2 channels, AAC (LC)
Субтитры: softsub (SRT)

Подробные технические данные

General
Complete name : Best Friend (2018).mp4
Format : MPEG-4
Format profile : Base Media / Version 2
Codec ID : mp42
File size : 44.5 MiB
Duration : 5mn 46s
Overall bit rate mode : Variable
Overall bit rate : 1 078 Kbps
Encoded date : UTC 2018-12-07 09:23:55
Tagged date : UTC 2018-12-07 09:23:55
Video
ID : 1
Format : AVC
Format/Info : Advanced Video Codec
Format profile : High@L3.2
Format settings, CABAC : Yes
Format settings, ReFrames : 5 frames
Codec ID : avc1
Codec ID/Info : Advanced Video Coding
Duration : 5mn 46s
Bit rate : 937 Kbps
Width : 1 280 pixels
Height : 720 pixels
Display aspect ratio : 16:9
Frame rate mode : Constant
Frame rate : 25.000 fps
Color space : YUV
Chroma subsampling : 4:2:0
Bit depth : 8 bits
Scan type : Progressive
Bits/(Pixel*Frame) : 0.041
Stream size : 38.7 MiB (87%)
Writing library : x264 core 157 r10 545de2f
Encoding settings : cabac=1 / ref=5 / deblock=1:0:0 / analyse=0x3:0x113 / me=hex / subme=8 / psy=1 / psy_rd=1.00:0.00 / mixed_ref=1 / me_range=16 / chroma_me=1 / trellis=2 / 8x8dct=1 / cqm=0 / deadzone=21,11 / fast_pskip=1 / chroma_qp_offset=-2 / threads=22 / lookahead_threads=3 / sliced_threads=0 / nr=0 / decimate=1 / interlaced=0 / bluray_compat=0 / stitchable=1 / constrained_intra=0 / bframes=3 / b_pyramid=2 / b_adapt=2 / b_bias=0 / direct=3 / weightb=1 / open_gop=0 / weightp=2 / keyint=infinite / keyint_min=25 / scenecut=40 / intra_refresh=0 / rc_lookahead=50 / rc=crf / mbtree=1 / crf=20.0 / qcomp=0.60 / qpmin=5 / qpmax=69 / qpstep=4 / vbv_maxrate=2750 / vbv_bufsize=7500 / crf_max=0.0 / nal_hrd=none / filler=0 / ip_ratio=1.40 / aq=1:1.00
Encoded date : UTC 2018-12-07 09:23:55
Tagged date : UTC 2018-12-07 09:23:55
Color primaries : BT.709
Transfer characteristics : BT.709
Matrix coefficients : BT.709
Audio
ID : 2
Format : AAC
Format/Info : Advanced Audio Codec
Format profile : LC
Codec ID : 40
Duration : 5mn 46s
Bit rate mode : Variable
Bit rate : 137 Kbps
Channel(s) : 2 channels
Channel positions : Front: L R
Sampling rate : 48.0 KHz
Compression mode : Lossy
Stream size : 5.65 MiB (13%)
Encoded date : UTC 2018-12-07 09:23:55
Tagged date : UTC 2018-12-07 09:23:55

Скриншоты

Пример субтитров

1
00:00:01,760 --> 00:00:04,000
С днём рождения, Артур,
2
00:00:04,600 --> 00:00:07,200
с днём рождения тебя!
3
00:00:10,860 --> 00:00:13,740
Что ты смотришь?
Давай! Загадай желание!
4
00:00:15,880 --> 00:00:17,040
О, извини...
5
00:00:17,270 --> 00:00:18,000
OK.
6
00:00:19,800 --> 00:00:22,720
Загадай желание! Загадай желание!
Загадай желание!
7
00:00:28,740 --> 00:00:30,560
С днём рождения, Артур!
8
00:00:33,810 --> 00:00:35,080
Спасибо, ребята.
9
00:00:36,000 --> 00:00:37,460
Это удивительно.
10
00:00:37,850 --> 00:00:38,570
Спасибо, Кэми.
11
00:00:39,560 --> 00:00:43,320
Ты такой забавный! Мы твои друзья.
И друзья... это хорошо…
12
00:00:43,880 --> 00:00:45,100
Мы можем...
[cybertorrent.ru].t15213.torrent 
Торрент: Зарегистрирован [ 2020-04-07 19:10 ] · 77129FB7E781AD96DA3189AE872CE917114C270A

Скачать .torrent

Скачать

14 KB

Статус: проверено
Скачан: 0 раз
Размер: 45 MB  ·  Тип торрента
terms.php
Профиль [ЛС]
Показать сообщения:    

Текущее время: 03-Июн 22:08

Часовой пояс: UTC ± 0



Вы не можете начинать темы
Вы не можете отвечать на сообщения
Вы не можете редактировать свои сообщения
Вы не можете удалять свои сообщения
Вы не можете голосовать в опросах
Вы не можете прикреплять файлы к сообщениям
Вы можете скачивать файлы