Статистика раздачи
Размер:  354 MB   |    Зарегистрирован:  1 месяц 26 дней   |    Скачан:  0 раз
DL-List: Нет

Полного источника не было: Никогда

 
     
 
 

MAGNAT ®

Пол:
Мужской
Стаж:
1 год 2 месяца
Сообщений:
7949

7 дней на раздаче!Крыс с большой дороги
The Highway Rat
Год выпуска: 2017
Страна: Великобритания
Жанр: мультфильм, короткометражка
Продолжительность: 00:25:08
Перевод: Профессиональный (Дублированный) - Озвучено по заказу АО "Первый канал. Всемирная сеть"
русские субтитры: нет-Режиссёр: Джерон Джасперт / Jeroen Jaspaert-Роли озвучивали: Роб Брайдон / Rob Brydon, Дэвид Теннант / David Tennant, Том Холландер / Tom Hollander, Нина Сосанья / Nina Sosanya-Описание: Мультфильм по стихотворной сказке Джулии Дональдсон и иллюстрациям Акселя Шеффлера.
Наглый Крыс, любитель сладостей, отнимает у зверюшек еду на большой дороге. Но за наглость и жадность ему придётся поплатиться...-Качество: DVB
Формат: TS
Видео кодек: AVC
Аудио кодек: MPEG
Видео: 720x576, 25 fps, ~1677 kbps avg, 0.162 bit/pixel
Аудио: 48 kHz, 2 ch, ~192 kbps

MediaInfo

Общее
Идентификатор : 1 (0x1)
Полное имя : D:\Mult\The Highway Rat.2017.DVB.ts
Формат : MPEG-TS
Размер файла : 354 Мбайт
Продолжительность : 25 м. 8 с.
Режим общего битрейта : Переменный
Общий поток : 1968 Кбит/сек
Видео
Идентификатор : 67 (0x43)
Идентификатор меню : 1 (0x1)
Формат : AVC
Формат/Информация : Advanced Video Codec
Профиль формата : Main@L3
Настройки формата : CABAC / 3 Ref Frames
Параметр CABAC формата : Да
Параметр RefFrames формата : 3 кадра
Идентификатор кодека : 27
Продолжительность : 25 м. 8 с.
Битрейт : 1677 Кбит/сек
Ширина : 720 пикселей
Высота : 576 пикселей
Соотношение сторон : 16:9
Частота кадров : 25,000 кадров/сек
Стандарт вещания : Component
Цветовое пространство : YUV
Субдискретизация насыщенности : 4:2:0
Битовая глубина : 8 бит
Тип развёртки : Чересстрочная
Метод сохранения типа развёртки : Раздельные поля
Порядок развёртки : Верхнее поле первое
Бит/(Пиксели*Кадры) : 0.162
Размер потока : 302 Мбайт (85%)
Цветовой диапазон : Limited
Основные цвета : BT.601 PAL
Характеристики трансфера : BT.470 System B, BT.470 System G
Коэффициенты матрицы : BT.470 System B, BT.470 System G
Аудио
Идентификатор : 68 (0x44)
Идентификатор меню : 1 (0x1)
Формат : MPEG Audio
Версия формата : Version 1
Профиль формата : Layer 2
Идентификатор кодека : 3
Продолжительность : 25 м. 8 с.
Вид битрейта : Постоянный
Битрейт : 192 Кбит/сек
Каналы : 2 канала
Частота : 48,0 КГц
Частота кадров : 41,667 кадра/сек (1152 SPF)
Метод сжатия : С потерями
Задержка видео : -120 мс.
Размер потока : 34,5 Мбайт (10%)
Язык : Russian
[cybertorrent.ru].t15215.torrent 
Торрент: Зарегистрирован [ 2020-04-07 19:11 ] · E5DE837AAACFF0D8A27168B7662C400DDA7739C5

Скачать .torrent

Скачать

14 KB

Статус: проверено
Скачан: 0 раз
Размер: 354 MB  ·  Тип торрента
terms.php
Профиль [ЛС]
Показать сообщения:    

Текущее время: 03-Июн 23:28

Часовой пояс: UTC ± 0



Вы не можете начинать темы
Вы не можете отвечать на сообщения
Вы не можете редактировать свои сообщения
Вы не можете удалять свои сообщения
Вы не можете голосовать в опросах
Вы не можете прикреплять файлы к сообщениям
Вы можете скачивать файлы