Статистика раздачи
Размер:  116 MB   |    Зарегистрирован:  1 месяц 26 дней   |    Скачан:  0 раз
DL-List: Нет

Полного источника не было: Никогда

 
     
 
 

MAGNAT ®

Пол:
Мужской
Стаж:
1 год 2 месяца
Сообщений:
7949

Лис и Птенец / Le Renard et l'Oisille
Страна: Швейцария
Жанр: короткометражный мультфильм
Продолжительность: 00:12:00
Год выпуска: 2018
Перевод: Не требуется
Русские субтитры: нет
Режиссёр: Сэм Гийом, Фред Гийом / Sam Guillaume, Fred Guillaume
Описание: Трогательный мультик о дружбе лиса и птенца. Персонажи в массовке это нечто (калька современного мира)
Качество: DVB
Формат: TS
Видео: 720x576 (16:9), 25fps, AVC, 1128 kbps
Аудио: MPEG Audio 48000Hz stereo 160kbps
Субтитры: отсутствуют

Подробные технические данные

Format : MPEG-TS
File size : 116 MiB
Duration : 11 min 59 s
Overall bit rate mode : Variable
Overall bit rate : 1 357 kb/s
Video
ID : 221 (0xDD)
Menu ID : 121 (0x79)
Format : AVC
Format/Info : Advanced Video Codec
Format profile : High@L3
Format settings, CABAC : Yes
Format settings, RefFrames : 4 frames
Format settings, GOP : M=4, N=28
Codec ID : 27
Duration : 11 min 59 s
Bit rate : 1 128 kb/s
Width : 720 pixels
Height : 576 pixels
Display aspect ratio : 16:9
Frame rate : 25.000 FPS
Standard : Component
Color space : YUV
Chroma subsampling : 4:2:0
Bit depth : 8 bits
Scan type : Interlaced
Scan type, store method : Separated fields
Scan order : Top Field First
Bits/(Pixel*Frame) : 0.109
Stream size : 96.8 MiB (83%)
Color range : Limited
Color primaries : BT.601 PAL
Transfer characteristics : BT.470 System B, BT.470 System G
Matrix coefficients : BT.601
Audio
ID : 321 (0x141)
Menu ID : 121 (0x79)
Format : MPEG Audio
Format version : Version 1
Format profile : Layer 2
Codec ID : 3
Duration : 11 min 59 s
Bit rate mode : Constant
Bit rate : 160 kb/s
Channel(s) : 2 channels
Sampling rate : 48.0 kHz
Compression mode : Lossy
Stream size : 13.7 MiB (12%)
Language : Russian

Скриншоты

[cybertorrent.ru].t15221.torrent 
Торрент: Зарегистрирован [ 2020-04-07 19:14 ] · 2C7F52BFB1829C6EF609069D749D35DCAA94061C

Скачать .torrent

Скачать

19 KB

Статус: проверено
Скачан: 0 раз
Размер: 116 MB  ·  Тип торрента
terms.php
Профиль [ЛС]
Показать сообщения:    

Текущее время: 03-Июн 23:05

Часовой пояс: UTC ± 0



Вы не можете начинать темы
Вы не можете отвечать на сообщения
Вы не можете редактировать свои сообщения
Вы не можете удалять свои сообщения
Вы не можете голосовать в опросах
Вы не можете прикреплять файлы к сообщениям
Вы можете скачивать файлы