Статистика раздачи
Размер:  95 MB   |    Зарегистрирован:  1 месяц 26 дней   |    Скачан:  0 раз
DL-List: Нет

Полного источника не было: Никогда

 
     
 
 

MAGNAT ®

Пол:
Мужской
Стаж:
1 год 2 месяца
Сообщений:
7949

Поросёнок и волки / A kismalac és a farkasok
Страна: Венгрия
Жанр: мультфильм
Продолжительность: 00:06:34
Год выпуска: 1977
Перевод: субтитры (alex.n42)
Русские субтитры: есть
Режиссёры: Марцелл Янкович / Marcell Jankovics, Элек Лисияк / Elek Lisziák
Текст читает: Кароль Хротко / Károly Hrotkó
Описание: Сказка про умного поросёнка, который сумел победить стаю голодных волков.
Доп. информация: Цикл "Венгерские сказки" / "Magyar Népmesék" снимался для венгерского телевидения с 1977 по 2011 год. За это время в производстве поучаствовали 23 режиссёра, многие эпизоды режиссировал мэтр венгерской анимации Марцелл Янкович. Полный цикл состоит из 100 мультфильмов.
Качество: DVDRip
Формат: AVI
Видео: 1882 kbps, 640х480 (4:3), 25.000 fps, MPEG-4 Visual (XviD)
Аудио: Magyar, 128 kbps, 44.1 kHz, 2 channels, MPEG Audio (MP3)
Субтитры: softsub (SRT)

Подробные технические данные

General
Complete name : A kismalac es a farkasok (1977).avi
Format : AVI
Format/Info : Audio Video Interleave
File size : 95.0 MiB
Duration : 6mn 34s
Overall bit rate : 2 020 Kbps
Writing application : VirtualDubMod 1.5.10.2 (build 2540/release)
Writing library : VirtualDubMod build 2540/release
Video
ID : 0
Format : MPEG-4 Visual
Format profile : Advanced Simple@L5
Format settings, BVOP : 2
Format settings, QPel : No
Format settings, GMC : No warppoints
Format settings, Matrix : Default (H.263)
Codec ID : XVID
Codec ID/Hint : XviD
Duration : 6mn 34s
Bit rate : 1 882 Kbps
Width : 640 pixels
Height : 480 pixels
Display aspect ratio : 4:3
Frame rate : 25.000 fps
Color space : YUV
Chroma subsampling : 4:2:0
Bit depth : 8 bits
Scan type : Progressive
Compression mode : Lossy
Bits/(Pixel*Frame) : 0.245
Stream size : 88.5 MiB (93%)
Writing library : XviD 73
Audio
ID : 1
Format : MPEG Audio
Format version : Version 1
Format profile : Layer 3
Codec ID : 55
Codec ID/Hint : MP3
Duration : 6mn 34s
Bit rate mode : Constant
Bit rate : 128 Kbps
Channel(s) : 2 channels
Sampling rate : 44.1 KHz
Compression mode : Lossy
Stream size : 6.02 MiB (6%)
Alignment : Split accross interleaves
Interleave, duration : 40 ms (1.00 video frame)
Interleave, preload duration : 500 ms

Скриншоты

Пример субтитров

1
00:00:16,730 --> 00:00:18,810
ВЕНГЕРСКИЕ СКАЗКИ
2
00:00:21,280 --> 00:00:23,600
ПОРОСЁНОК И ВОЛКИ
3
00:00:27,090 --> 00:00:28,790
Давным-давно жил поросёнок.
4
00:00:29,720 --> 00:00:34,630
Он жил один в маленьком домике
посреди большого леса.
5
00:00:36,990 --> 00:00:39,620
Однажды поросёнок готовил ужин,
6
00:00:40,730 --> 00:00:44,230
и тут голодный косматый волк
постучал в его дверь.
7
00:00:53,850 --> 00:00:58,240
- Поросёнок, впусти меня.
Здесь так холодно. Замерзну насмерть.
8
00:00:59,300 --> 00:01:01,400
- Не впущу! Ты же меня съешь.
9
00:01:04,440 --> 00:01:08,840
- Впусти хоть мою заднюю лапу,
а то я замёрзну до смерти.
10
00:01:24,030 --> 00:01:27,880
Поросёнок поставил на огонь
большой котёл воды,
11
00:01:28,050 --> 00:01:31,800
а потом впустил в дом
одну заднюю лапу волка.
12
00:01:43,160 --> 00:01:47,630
- Поросёнок, пожалуйста,
впусти и другую заднюю лапу!
[cybertorrent.ru].t15223.torrent 
Торрент: Зарегистрирован [ 2020-04-07 19:15 ] · CA928B5A6E9E78BBA07CA1704335B0FBA8FC4B36

Скачать .torrent

Скачать

16 KB

Статус: проверено
Скачан: 0 раз
Размер: 95 MB  ·  Тип торрента
terms.php
Профиль [ЛС]
Показать сообщения:    

Текущее время: 03-Июн 21:51

Часовой пояс: UTC ± 0



Вы не можете начинать темы
Вы не можете отвечать на сообщения
Вы не можете редактировать свои сообщения
Вы не можете удалять свои сообщения
Вы не можете голосовать в опросах
Вы не можете прикреплять файлы к сообщениям
Вы можете скачивать файлы