Статистика раздачи
Размер:  337 MB   |    Зарегистрирован:  1 месяц 26 дней   |    Скачан:  0 раз
DL-List: Нет

Полного источника не было: Никогда

 
     
 
 

MAGNAT ®

Пол:
Мужской
Стаж:
1 год 2 месяца
Сообщений:
7949

Рождественская гусыня Августа / Die Weihnachtsgans Auguste
Страна: ГДР
Жанр: детский, семейный
Продолжительность: 0:21:24
Год выпуска: 1984
Перевод: Любительский (двухголосый закадровый)
Русские субтитры: нет
Режиссёр: Гюнтер Ретц / Günter Rätz
Описание: Луитпольд Лёвенхаупт, прекрасный семьянин, заботливый муж и отец троих детей, а по призванию - оперный певец в городском театре, в один из дней в конце ноября заметил в витрине зоомагазина упитанную гусыню. Близится Рождество и почему бы настоящему мужчине не пожелать на праздничный стол вкусного гуся, с яблоками и красной капустой? Именно с этой целью он и покупает птицу, после чего приносит ее домой. Да вот незадача - Элли, Герда и маленький почемучка Петерле тут же полюбили гусыню как домашнего питомца и назвали ее Густи - сокращенно от Августа. Рождественский праздник уже на носу, ну и как же быть господину Лёвенхаупту?
По одноименной повести Фридриха Вольфа.
Качество: DVDRip
Формат: AVI
Видео: Xvid, 720x544 (4:3), 25 fps, 1999 kbps
Аудио: MP3, 48000 Hz, 192 kbps, 2 ch
Субтитры: отсутствуют

Подробные технические данные

General
Complete name : 1984 - Die Weihnachtsgans Auguste.avi
Format : AVI
Format/Info : Audio Video Interleave
File size : 337 MiB
Duration : 21 min 24 s
Overall bit rate : 2 202 kb/s
Writing application : VirtualDubMod 1.5.10.3 | www.virtualdub-fr.org || (build 2550/release)
Writing library : VirtualDubMod build 2550/release
Video
ID : 0
Format : MPEG-4 Visual
Format profile : Advanced Simple@L5
Format settings, BVOP : 2
Format settings, QPel : No
Format settings, GMC : No warppoints
Format settings, Matrix : Default (H.263)
Codec ID : XVID
Codec ID/Hint : XviD
Duration : 21 min 24 s
Bit rate : 2 000 kb/s
Width : 720 pixels
Height : 544 pixels
Display aspect ratio : 4:3
Frame rate : 25.000 FPS
Color space : YUV
Chroma subsampling : 4:2:0
Bit depth : 8 bits
Scan type : Progressive
Compression mode : Lossy
Bits/(Pixel*Frame) : 0.204
Stream size : 306 MiB (91%)
Writing library : XviD 73
Audio
ID : 1
Format : MPEG Audio
Format version : Version 1
Format profile : Layer 3
Mode : Joint stereo
Mode extension : MS Stereo
Codec ID : 55
Codec ID/Hint : MP3
Duration : 21 min 24 s
Bit rate mode : Constant
Bit rate : 192 kb/s
Channel(s) : 2 channels
Sampling rate : 48.0 kHz
Compression mode : Lossy
Stream size : 29.4 MiB (9%)
Alignment : Aligned on interleaves
Interleave, duration : 40 ms (1.00 video frame)
Interleave, preload duration : 504 ms

Скриншоты

[cybertorrent.ru].t15225.torrent 
Торрент: Зарегистрирован [ 2020-04-07 19:17 ] · 842EBFE1C3B74BDA8F8F8102EA3242D26807287F

Скачать .torrent

Скачать

14 KB

Статус: проверено
Скачан: 0 раз
Размер: 337 MB  ·  Тип торрента
terms.php
Профиль [ЛС]
Показать сообщения:    

Текущее время: 03-Июн 23:12

Часовой пояс: UTC ± 0



Вы не можете начинать темы
Вы не можете отвечать на сообщения
Вы не можете редактировать свои сообщения
Вы не можете удалять свои сообщения
Вы не можете голосовать в опросах
Вы не можете прикреплять файлы к сообщениям
Вы можете скачивать файлы