Статистика раздачи
Размер:  156 MB   |    Зарегистрирован:  1 месяц 26 дней   |    Скачан:  0 раз
DL-List: Нет

Полного источника не было: Никогда

 
     
 
 

MAGNAT ®

Пол:
Мужской
Стаж:
1 год 2 месяца
Сообщений:
7949

Давай, Паровоз! / Hajrá, Mozdony!
Страна: Венгрия
Жанр: мультфильм для взрослых
Продолжительность: 00:08:26
Год выпуска: 1972
Перевод: не требуется
Русские субтитры: нет
Режиссёр: Аттила Даргаи / Attila Dargay
Описание: Сатирический сюжет про паровоз, который отставал от более современных моделей. Но всезнающие пассажиры считали, что главное - это правильно выбрать машиниста.
Качество: WEBRip
Формат: AVI
Видео: 2376 kbps, 720х544 (1.417), 25.000 fps, MPEG-4 Visual (XviD)
Аудио: 192 kbps, 44.1 kHz, 2 channels, MPEG Audio (MP3)
Субтитры: отсутствуют

Подробные технические данные

General
Complete name : Hajra, Mozdony! (1972).avi
Format : AVI
Format/Info : Audio Video Interleave
File size : 156 MiB
Duration : 8mn 26s
Overall bit rate : 2 578 Kbps
Writing application : VirtualDubMod 1.5.10.2 (build 2540/release)
Writing library : VirtualDubMod build 2540/release
Video
ID : 0
Format : MPEG-4 Visual
Format profile : Advanced Simple@L5
Format settings, BVOP : 2
Format settings, QPel : No
Format settings, GMC : No warppoints
Format settings, Matrix : Default (H.263)
Codec ID : XVID
Codec ID/Hint : XviD
Duration : 8mn 26s
Bit rate : 2 376 Kbps
Width : 720 pixels
Height : 544 pixels
Display aspect ratio : 4:3
Frame rate : 25.000 fps
Color space : YUV
Chroma subsampling : 4:2:0
Bit depth : 8 bits
Scan type : Progressive
Compression mode : Lossy
Bits/(Pixel*Frame) : 0.243
Stream size : 144 MiB (92%)
Writing library : XviD 73
Audio
ID : 1
Format : MPEG Audio
Format version : Version 1
Format profile : Layer 3
Codec ID : 55
Codec ID/Hint : MP3
Duration : 8mn 26s
Bit rate mode : Constant
Bit rate : 192 Kbps
Channel(s) : 2 channels
Sampling rate : 44.1 KHz
Compression mode : Lossy
Stream size : 11.6 MiB (7%)
Alignment : Split accross interleaves
Interleave, duration : 40 ms (1.00 video frame)
Interleave, preload duration : 500 ms

Скриншоты

[cybertorrent.ru].t15230.torrent 
Торрент: Зарегистрирован [ 2020-04-07 19:21 ] · B7F45D6B7B456FCAEEE54D01AB4E63B1353332CA

Скачать .torrent

Скачать

13 KB

Статус: проверено
Скачан: 0 раз
Размер: 156 MB  ·  Тип торрента
terms.php
Профиль [ЛС]
Показать сообщения:    

Текущее время: 03-Июн 23:25

Часовой пояс: UTC ± 0



Вы не можете начинать темы
Вы не можете отвечать на сообщения
Вы не можете редактировать свои сообщения
Вы не можете удалять свои сообщения
Вы не можете голосовать в опросах
Вы не можете прикреплять файлы к сообщениям
Вы можете скачивать файлы