Статистика раздачи
Размер:  192 MB   |    Зарегистрирован:  3 месяца   |    Скачан:  0 раз
DL-List: Нет

Полного источника не было: Никогда

 
     
 
 

MAGNAT ®

Пол:
Мужской
Стаж:
1 год 3 месяца
Сообщений:
8784

Две песни / Zwei Lieder
Страна: ГДР
Жанр: притча
Продолжительность: 0:09:42
Год выпуска: 1962
Перевод: Одноголосый закадровый
Русские субтитры: нет
Режиссёр: Вернер Крауссе / Werner Krauße
Описание: В давние времена поэт Ло слагал хвалебные вирши для императора Поднебесной, за что был обласкан им при дворе. Но простым людям не по душе эти песни да и сам Ло чувствует, что им чего-то недостает. Чтобы понять это, он сближается с простым народом...
Качество: DVDRip
Формат: AVI
Видео: Xvid, 720x400 (16:9), 25 fps, 2572 kbps
Аудио: MP3, 48000 Hz, 192 kbps, 2 ch
Субтитры: отсутствуют

Подробные технические данные

General
Complete name : 1962 - Zwei Lieder.avi
Format : AVI
Format/Info : Audio Video Interleave
File size : 192 MiB
Duration : 9 min 41 s
Overall bit rate : 2 774 kb/s
Writing application : VirtualDubMod 1.5.10.3 | www.virtualdub-fr.org || (build 2550/release)
Writing library : VirtualDubMod build 2550/release
Video
ID : 0
Format : MPEG-4 Visual
Format profile : Advanced Simple@L5
Format settings, BVOP : 2
Format settings, QPel : No
Format settings, GMC : No warppoints
Format settings, Matrix : Default (H.263)
Codec ID : XVID
Codec ID/Hint : XviD
Duration : 9 min 41 s
Bit rate : 2 572 kb/s
Width : 720 pixels
Height : 400 pixels
Display aspect ratio : 16:9
Frame rate : 25.000 FPS
Color space : YUV
Chroma subsampling : 4:2:0
Bit depth : 8 bits
Scan type : Progressive
Compression mode : Lossy
Bits/(Pixel*Frame) : 0.357
Stream size : 178 MiB (93%)
Writing library : XviD 67
Audio
ID : 1
Format : MPEG Audio
Format version : Version 1
Format profile : Layer 3
Mode : Joint stereo
Mode extension : MS Stereo
Codec ID : 55
Codec ID/Hint : MP3
Duration : 9 min 41 s
Bit rate mode : Constant
Bit rate : 192 kb/s
Channel(s) : 2 channels
Sampling rate : 48.0 kHz
Compression mode : Lossy
Stream size : 13.3 MiB (7%)
Alignment : Aligned on interleaves
Interleave, duration : 40 ms (1.00 video frame)
Interleave, preload duration : 504 ms

Скриншоты

[cybertorrent.ru].t15232.torrent 
Торрент: Зарегистрирован [ 2020-04-07 19:22 ] · 53DB95E329BE5FEE978623E7F81E17998D5CBCE3

Скачать .torrent

Скачать

16 KB

Статус: проверено
Скачан: 0 раз
Размер: 192 MB  ·  Тип торрента
terms.php
Профиль [ЛС]
Показать сообщения:    

Текущее время: 08-Июл 04:46

Часовой пояс: UTC ± 0



Вы не можете начинать темы
Вы не можете отвечать на сообщения
Вы не можете редактировать свои сообщения
Вы не можете удалять свои сообщения
Вы не можете голосовать в опросах
Вы не можете прикреплять файлы к сообщениям
Вы можете скачивать файлы