Статистика раздачи
Размер:  186 MB   |    Зарегистрирован:  1 месяц 26 дней   |    Скачан:  0 раз
DL-List: Нет

Полного источника не было: Никогда

 
     
 
 

MAGNAT ®

Пол:
Мужской
Стаж:
1 год 2 месяца
Сообщений:
7949

Зевс, орел, навозный жук / Zeus, Adler, Mistkäfer
Страна: ГДР
Жанр: басня, сатира
Продолжительность: 0:09:58
Год выпуска: 1988
Перевод: Одноголосый закадровый
Русские субтитры: нет
Режиссёр: Курт Вайлер / Kurt Weiler
Описание: Маленький жук, умеющий всего-навсего катать шарики из навоза, решает отомстить за гибель своих друзей хищному орлиному семейству.
По басне Эзопа "Орел и жук".
Семпл: http://multi-up.com/1245583
Качество: DVDRip
Формат: AVI
Видео: Xvid, 720x544 (4:3), 25 fps, 2408 kbps
Аудио: MP3, 48000 Hz, 192 kbps, 2 ch
Субтитры: отсутствуют

Подробные технические данные

General
Complete name : 1988 - Zeus_Adler_Mistkafer.avi
Format : AVI
Format/Info : Audio Video Interleave
File size : 186 MiB
Duration : 9 min 58 s
Overall bit rate : 2 610 kb/s
Writing application : VirtualDubMod 1.5.10.3 | www.virtualdub-fr.org || (build 2550/release)
Writing library : VirtualDubMod build 2550/release
Video
ID : 0
Format : MPEG-4 Visual
Format profile : Advanced Simple@L5
Format settings, BVOP : 2
Format settings, QPel : No
Format settings, GMC : No warppoints
Format settings, Matrix : Default (H.263)
Codec ID : XVID
Codec ID/Hint : XviD
Duration : 9 min 58 s
Bit rate : 2 408 kb/s
Width : 720 pixels
Height : 544 pixels
Display aspect ratio : 4:3
Frame rate : 25.000 FPS
Color space : YUV
Chroma subsampling : 4:2:0
Bit depth : 8 bits
Scan type : Progressive
Compression mode : Lossy
Bits/(Pixel*Frame) : 0.246
Stream size : 172 MiB (92%)
Writing library : XviD 67
Audio
ID : 1
Format : MPEG Audio
Format version : Version 1
Format profile : Layer 3
Mode : Joint stereo
Mode extension : MS Stereo
Codec ID : 55
Codec ID/Hint : MP3
Duration : 9 min 58 s
Bit rate mode : Constant
Bit rate : 192 kb/s
Channel(s) : 2 channels
Sampling rate : 48.0 kHz
Compression mode : Lossy
Stream size : 13.7 MiB (7%)
Alignment : Aligned on interleaves
Interleave, duration : 40 ms (1.00 video frame)
Interleave, preload duration : 504 ms

Скриншоты

[cybertorrent.ru].t15233.torrent 
Торрент: Зарегистрирован [ 2020-04-07 19:23 ] · 9D4D0795EA4D9A0E852F0CA606E1066A3A545A26

Скачать .torrent

Скачать

15 KB

Статус: проверено
Скачан: 0 раз
Размер: 186 MB  ·  Тип торрента
terms.php
Профиль [ЛС]
Показать сообщения:    

Текущее время: 03-Июн 21:43

Часовой пояс: UTC ± 0



Вы не можете начинать темы
Вы не можете отвечать на сообщения
Вы не можете редактировать свои сообщения
Вы не можете удалять свои сообщения
Вы не можете голосовать в опросах
Вы не можете прикреплять файлы к сообщениям
Вы можете скачивать файлы