Статистика раздачи
Размер:  206 MB   |    Зарегистрирован:  1 месяц 26 дней   |    Скачан:  0 раз
DL-List: Нет

Полного источника не было: Никогда

 
     
 
 

MAGNAT ®

Пол:
Мужской
Стаж:
1 год 2 месяца
Сообщений:
7949

... что у вас не брезжит свет! / ... dass Euch da kein Licht aufgeht!
Страна: ГДР
Жанр: агитка; сатира
Продолжительность: 0:11:04
Год выпуска: 1961
Перевод: Одноголосый закадровый
Русские субтитры: нет
Режиссёр: Хайнц Энгельманн / Heinz Engelmann (He. Hellerau)
Описание: Не всегда граждане бывают добросовестными и зачастую оставляют электроприборы без присмотра, чем пользуется зловредный Тококрад, нагло ворующий электроэнергию. Чтобы воспрепятствовать его безобразиям, среди школьников организуют специальное мероприятие, а также в выслеживании негодника принимает участие образцовый пионер Беппо Бастельман со своим верным псом.
Качество: DVDRip
Формат: AVI
Видео: Xvid, 720x544 (5:4), 25 fps, 2393 kbps
Аудио: MP3, 48000 Hz stereo 192 kbps, 2 ch
Субтитры: отсутствуют

Подробные технические данные

General
Complete name : 1961 - dass Euch da kein Licht aufgeht.avi
Format : AVI
Format/Info : Audio Video Interleave
File size : 206 MiB
Duration : 11 min 4 s
Overall bit rate : 2 595 kb/s
Writing application : VirtualDubMod 1.5.10.3 | www.virtualdub-fr.org || (build 2550/release)
Writing library : VirtualDubMod build 2550/release
Video
ID : 0
Format : MPEG-4 Visual
Format profile : Advanced Simple@L5
Format settings, BVOP : 2
Format settings, QPel : No
Format settings, GMC : No warppoints
Format settings, Matrix : Default (H.263)
Muxing mode : Packed bitstream
Codec ID : XVID
Codec ID/Hint : XviD
Duration : 11 min 4 s
Bit rate : 2 393 kb/s
Width : 720 pixels
Height : 544 pixels
Display aspect ratio : 5:4
Original display aspect ratio : 4:3
Frame rate : 25.000 FPS
Color space : YUV
Chroma subsampling : 4:2:0
Bit depth : 8 bits
Scan type : Progressive
Compression mode : Lossy
Bits/(Pixel*Frame) : 0.244
Stream size : 190 MiB (92%)
Writing library : XviD 67
Audio
ID : 1
Format : MPEG Audio
Format version : Version 1
Format profile : Layer 3
Mode : Joint stereo
Mode extension : MS Stereo
Codec ID : 55
Codec ID/Hint : MP3
Duration : 11 min 4 s
Bit rate mode : Constant
Bit rate : 192 kb/s
Channel(s) : 2 channels
Sampling rate : 48.0 kHz
Compression mode : Lossy
Stream size : 15.2 MiB (7%)
Alignment : Aligned on interleaves
Interleave, duration : 40 ms (1.00 video frame)
Interleave, preload duration : 504 ms

Скриншоты

[cybertorrent.ru].t15235.torrent 
Торрент: Зарегистрирован [ 2020-04-07 19:24 ] · 5CBB415BC5AF466527425A5169E77A6CF0874B83

Скачать .torrent

Скачать

17 KB

Статус: проверено
Скачан: 0 раз
Размер: 206 MB  ·  Тип торрента
terms.php
Профиль [ЛС]
Показать сообщения:    

Текущее время: 03-Июн 22:57

Часовой пояс: UTC ± 0



Вы не можете начинать темы
Вы не можете отвечать на сообщения
Вы не можете редактировать свои сообщения
Вы не можете удалять свои сообщения
Вы не можете голосовать в опросах
Вы не можете прикреплять файлы к сообщениям
Вы можете скачивать файлы