Статистика раздачи
Размер:  1,46 GB   |    Зарегистрирован:  3 месяца   |    Скачан:  0 раз
DL-List: Нет

Полного источника не было: Никогда

 
     
 
 

MAGNAT ®

Пол:
Мужской
Стаж:
1 год 3 месяца
Сообщений:
8784

Игры с огнём / Playing with Fire
«0% авторитета»
- Год выхода: 2019
Страна: США
Жанр: комедия, семейный
Продолжительность: 01:35:58
Перевод: Профессиональный (полное дублирование)
Субтитры: нет-Режиссер:
Энди Фикмен / Andy Fickman-В ролях:
Джон Сина, Кигэн-Майкл Ки, Брианна Хилдебранд, Джон Легуизамо, Тайлер Мэйн, Кристиан Конвери, Финли Роуз Слэйтер, Джуди Грир, Деннис Хейсбёрт, Дэниэл Кадмор-О фильме:
Когда суровый начальник пожарной части Джейк Карсон и его элитная команда опытных пожарных спасают троих детей, оказавшихся на пути наступающего лесного пожара, они быстро понимают, что никакие тренировки не могли подготовить их к самой сложной работе — стать няньками. Не имея возможности найти родителей детей, они сталкиваются с тем, что их жизни, работа и родное пожарное депо стремительно переворачиваются с ног на голову, ведь дети — как и пожары — дикие и непредсказуемые.-Качество: BDRip
Формат: AVI
Видео: 704x400 (1.76:1), 23.976 fps, XviD build 67 ~1778 kbps avg, 0.26 bit/pixel
Аудио: 48 kHz, AC3 Dolby Digital, 3/2 (L,C,R,l,r) + LFE ch, ~384.00 kbps avg - iTunes Russia-

Скриншоты

-

MediaInfo

Код:Общее
Полное имя : E:\Igry_s_ognem_2019_BDRip_by_Dalemake.avi
Формат : AVI
Формат/Информация : Audio Video Interleave
Размер файла : 1,46 Гбайт
Продолжительность : 1 ч. 35 м.
Общий поток : 2172 Кбит/сек
Программа кодирования : VirtualDubMod 1.5.10.3 | www.virtualdub-fr.org || (build 2550/release)
Библиотека кодирования : VirtualDubMod build 2550/release
Видео
Идентификатор : 0
Формат : MPEG-4 Visual
Профиль формата : Advanced Simple@L5
Настройки формата : BVOP1 / Custom Matrix
Параметр BVOP формата : 1
Параметр QPel формата : Нет
Параметр GMC формата : Без точки перехода
Параметр матрицы формата : Выборочная
Идентификатор кодека : XVID
Идентификатор кодека/Подсказка : XviD
Продолжительность : 1 ч. 35 м.
Битрейт : 1779 Кбит/сек
Ширина : 704 пикселя
Высота : 400 пикселей
Соотношение сторон : 16:9
Частота кадров : 23,976 (24000/1001) кадра/сек
Цветовое пространство : YUV
Субдискретизация насыщенности : 4:2:0
Битовая глубина : 8 бит
Тип развёртки : Прогрессивная
Метод сжатия : С потерями
Бит/(Пиксели*Кадры) : 0.263
Размер потока : 1,19 Гбайт (82%)
Библиотека кодирования : XviD 67
Аудио
Идентификатор : 1
Формат : AC-3
Формат/Информация : Audio Coding 3
Коммерческое название : Dolby Digital
Идентификатор кодека : 2000
Продолжительность : 1 ч. 35 м.
Вид битрейта : Постоянный
Битрейт : 384 Кбит/сек
Каналы : 6 каналов
ChannelLayout : L R C LFE Ls Rs
Частота : 48,0 КГц
Частота кадров : 31,250 кадров/сек (1536 SPF)
Метод сжатия : С потерями
Размер потока : 264 Мбайт (18%)
Выравнивание : Разделение по промежуткам
Продолжительность промежутка : 42 мс. (1,00 видеокадр)
Время предзагрузки промежутка : 500 мс.
ServiceKind/String : Complete Main
-
[cybertorrent.ru].t15240.torrent 
Торрент: Зарегистрирован [ 2020-04-07 19:38 ] · A04E651A84CB512D41382B1AC736D32B79B615B0

Скачать .torrent

Скачать

15 KB

Статус: проверено
Скачан: 0 раз
Размер: 1,46 GB  ·  Тип торрента
terms.php
Профиль [ЛС]
Показать сообщения:    

Текущее время: 08-Июл 05:47

Часовой пояс: UTC ± 0



Вы не можете начинать темы
Вы не можете отвечать на сообщения
Вы не можете редактировать свои сообщения
Вы не можете удалять свои сообщения
Вы не можете голосовать в опросах
Вы не можете прикреплять файлы к сообщениям
Вы можете скачивать файлы