Статистика раздачи
Размер:  2,79 GB   |    Зарегистрирован:  1 месяц 24 дня   |    Скачан:  0 раз
DL-List: Нет

Полного источника не было: Никогда

 
     
 
 

MAGNAT ®

Пол:
Мужской
Стаж:
1 год 2 месяца
Сообщений:
7925

Чудо-женщина
Wonder Woman

Страна: США, Китай, Гонконг
Жанр: фантастика
Год выпуска: 2017
Продолжительность: 02:21:15-Перевод: Профессиональный (двухголосый закадровый) TV Play Baltics
Фильм к показу подготовлен компанией SDI Media в 2018 году по заказу TV Play Baltics
Роли озвучивали: Виктория Бабанова и и Дмитрий Шандро
Субтитры: русские (надписи, полные), английские
Оригинальная аудиодорожка: английский-Режиссер: Пэтти Дженкинс / Patty Jenkins
В ролях: Галь Гадот, Крис Пайн, Робин Райт, Конни Нильсен, Дэнни Хьюстон, Дэвид Тьюлис, Юэн Бремнер, Саид Тагмауи, Елена Анайя, Люси Дэвис, Зак Снайдер, Джеймс Космо, Вольф Калер, Александр Меркюри, Эндрю Байрон, Райнер Бок-Описание: Перед тем как стать Чудо-Женщиной, она была Дианой — принцессой амазонок, обученной быть непобедимой воительницей. И когда на берегах ограждённого от внешнего мира райского острова, который служил ей родиной, терпит крушение американский пилот и рассказывает о серьёзном конфликте, бушующем во внешнем мире, Диана покидает свой дом, чтобы справиться с этой угрозой. И там, сражаясь бок о бок с человеком в войне за мир, Диана обнаружит всю полноту своей власти… и своё истинное предназначение-Качество видео: BDRip-AVC
Формат видео: MKV
Видео: AVC, 1056х440, 2,40:1, 23,976 кадра/сек, 2148 Кбит/сек
Аудио 1: AC-3, 48,0 КГц, 224 Кбит/сек, 2 канала (двухголосый TV Play Baltics)
Аудио 2: AC-3, 48,0 КГц, 448 Кбит/сек, 6 каналов (английская оригинальная дорожка)
Формат субтитров: softsub (SRT)

MediaInfo

Общее
Уникальный идентификатор : 239134526583544436586342414756687026355 (0xB3E7A271C3C291414CF62ECA7D9698B3)
Полное имя : Чудо-женщина.2017.BDRip.mkv
Формат : Matroska
Версия формата : Version 4
Размер файла : 2,79 Гбайт
Продолжительность : 2 ч. 21 м.
Общий поток : 2 823 Кбит/сек
Название фильма : Чудо-женщина / Wonder Woman / 2017
Дата кодирования : UTC 2020-04-06 14:22:37
Программа кодирования : mkvmerge v45.0.0 ('Heaven in Pennies') 32-bit
Библиотека кодирования : libebml v1.3.10 + libmatroska v1.5.2
Видео
Идентификатор : 1
Формат : AVC
Формат/Информация : Advanced Video Codec
Профиль формата : High@L4.1
Настройки формата : CABAC / 12 Ref Frames
Параметр CABAC формата : Да
Параметр RefFrames формата : 12 кадров
Идентификатор кодека : V_MPEG4/ISO/AVC
Продолжительность : 2 ч. 21 м.
Битрейт : 2 148 Кбит/сек
Ширина : 1 056 пикселей
Высота : 440 пикселей
Соотношение сторон : 2,40:1
Режим частоты кадров : Постоянный
Частота кадров : 23,976 (24000/1001) кадра/сек
Цветовое пространство : YUV
Субдискретизация насыщенности : 4:2:0
Битовая глубина : 8 бит
Тип развёртки : Прогрессивная
Бит/(Пиксели*Кадры) : 0.193
Размер потока : 2,12 Гбайт (76%)
Заголовок : Чудо-женщина / Wonder Woman / 2017
Библиотека кодирования : x264 core 152 r2851+45 9658d1a 7mod [8-bit@all X86_64]
Настройки программы : cabac=1 / ref=12 / deblock=1:-3:-2 / analyse=0x3:0x133 / me=umh / subme=10 / psy=1 / fade_compensate=0.00 / psy_rd=1.00:0.00 / mixed_ref=1 / me_range=32 / chroma_me=0 / trellis=2 / 8x8dct=1 / cqm=0 / deadzone=21,11 / fast_pskip=0 / chroma_qp_offset=-2 / threads=6 / lookahead_threads=1 / sliced_threads=0 / nr=0 / decimate=1 / interlaced=0 / bluray_compat=0 / constrained_intra=0 / fgo=0 / bframes=15 / b_pyramid=2 / b_adapt=2 / b_bias=0 / direct=1 / weightb=1 / open_gop=0 / weightp=2 / keyint=240 / keyint_min=23 / scenecut=40 / intra_refresh=0 / rc_lookahead=90 / rc=crf / mbtree=0 / crf=18.5000 / qcomp=0.65 / qpmin=0:0:0 / qpmax=69:69:69 / qpstep=4 / vbv_maxrate=50000 / vbv_bufsize=62500 / crf_max=0.0 / nal_hrd=none / filler=0 / ip_ratio=1.35 / pb_ratio=1.25 / aq=3:0.80 / aq-sensitivity=10.00 / aq-factor=1.00:1.00:1.00 / aq2=0 / aq3=0 / zones=191391,203219,q=28
Язык : English
Default : Да
Forced : Нет
Аудио #1
Идентификатор : 2
Формат : AC-3
Формат/Информация : Audio Coding 3
Коммерческое название : Dolby Digital
Идентификатор кодека : A_AC3
Продолжительность : 2 ч. 21 м.
Вид битрейта : Постоянный
Битрейт : 224 Кбит/сек
Каналы : 2 канала
Channel layout : L R
Частота : 48,0 КГц
Частота кадров : 31,250 кадров/сек (1536 SPF)
Метод сжатия : С потерями
Размер потока : 226 Мбайт (8%)
Заголовок : двухголосый TV Play Baltics
Язык : Russian
Service kind : Complete Main
Default : Да
Forced : Нет
Аудио #2
Идентификатор : 3
Формат : AC-3
Формат/Информация : Audio Coding 3
Коммерческое название : Dolby Digital
Идентификатор кодека : A_AC3
Продолжительность : 2 ч. 21 м.
Вид битрейта : Постоянный
Битрейт : 448 Кбит/сек
Каналы : 6 каналов
Channel layout : L R C LFE Ls Rs
Частота : 48,0 КГц
Частота кадров : 31,250 кадров/сек (1536 SPF)
Метод сжатия : С потерями
Размер потока : 453 Мбайт (16%)
Заголовок : оригинал
Язык : English
Service kind : Complete Main
Default : Нет
Forced : Нет
Текст #1
Идентификатор : 4
Формат : UTF-8
Идентификатор кодека : S_TEXT/UTF8
Идентификатор кодека/Информация : UTF-8 Plain Text
Продолжительность : 2 ч. 7 м.
Битрейт : 1 бит/сек
Count of elements : 15
Размер потока : 1,08 Кбайт (0%)
Заголовок : Forced
Язык : Russian
Default : Да
Forced : Нет
Текст #2
Идентификатор : 5
Формат : UTF-8
Идентификатор кодека : S_TEXT/UTF8
Идентификатор кодека/Информация : UTF-8 Plain Text
Продолжительность : 2 ч. 12 м.
Битрейт : 80 бит/сек
Count of elements : 1300
Размер потока : 78,2 Кбайт (0%)
Заголовок : iTunes
Язык : Russian
Default : Нет
Forced : Нет
Текст #3
Идентификатор : 6
Формат : UTF-8
Идентификатор кодека : S_TEXT/UTF8
Идентификатор кодека/Информация : UTF-8 Plain Text
Продолжительность : 2 ч. 20 м.
Битрейт : 44 бит/сек
Count of elements : 1586
Размер потока : 46,1 Кбайт (0%)
Заголовок : оригинал
Язык : English
Default : Нет
Forced : Нет
Меню
00:00:00.000 : en:Chapter 01
00:10:26.917 : en:Chapter 02
00:23:12.557 : en:Chapter 03
00:33:10.738 : en:Chapter 04
00:43:55.132 : en:Chapter 05
00:54:25.553 : en:Chapter 06
01:07:38.262 : en:Chapter 07
01:22:30.195 : en:Chapter 08
01:34:02.845 : en:Chapter 09
01:45:37.998 : en:Chapter 10
01:57:43.765 : en:Chapter 11
02:10:41.416 : en:Chapter 12
02:21:15.717 : en:Chapter 13

Скриншот c названием фильма

Скриншоты

[cybertorrent.ru].t15243.torrent 
Торрент: Зарегистрирован [ 2020-04-07 19:40 ] · 0266B73B1B2982D7043A8D4BF0DA32203D4652C7

Скачать .torrent

Скачать

14 KB

Статус: проверено
Скачан: 0 раз
Размер: 2,79 GB  ·  Тип торрента
terms.php
Профиль [ЛС]
Показать сообщения:    

Текущее время: 01-Июн 15:35

Часовой пояс: UTC ± 0



Вы не можете начинать темы
Вы не можете отвечать на сообщения
Вы не можете редактировать свои сообщения
Вы не можете удалять свои сообщения
Вы не можете голосовать в опросах
Вы не можете прикреплять файлы к сообщениям
Вы можете скачивать файлы