Статистика раздачи
Размер:  1,8 GB   |    Зарегистрирован:  6 месяцев 29 дней   |    Скачан:  0 раз

Полного источника не было: Никогда

   
 

serzh ®

Пол:
Не указан
Стаж:
7 месяцев 4 дня
Сообщений:
384

Самоволка / Львиное сердце / Леон / A.W.O.L.: Absent Without Leave / Lionheart / Full Contact / Leon
Страна: США
Жанр: боевик, приключения
Год выпуска: 1990
Продолжительность: 01:50:17
Перевод: Авторский (одноголосый закадровый) Василий Горчаков
Перевод 2: Авторский (одноголосый закадровый) Юрий Сербин (отдельно)
Субтитры: нет
Режиссер: Шелдон Леттич / Sheldon Lettich
В ролях: Ван Дамм, Харрисон Пейдж, Дебора Реннард, Лиза Пеликан, Эшли Джонсон, Брайан Томпсон, Войо Горич, Мишель Кисси, Джордж МакДэниэл, Эрик Карсон
Описание: Лион Готье дезертирует из Иностранного легиона, чтобы бежать в США и помочь своему брату, с тяжелыми ранениями попавшему в больницу. Прибыв в Америку, он узнает, что его брат, промышлявший преступными делами, уже умер, оставив без денег жену и дочь. Лион чувствует свою ответственность перед невесткой и племянницей. Чтобы заработать необходимые деньги, Готье решает принять участие в подпольных боях без правил....
Доп. информация: За дорогу с Горчаковым сердечно благодарим m.mamichev

Сэмпл: http://multi-up.com/1223980
Качество видео: HDRip
Формат видео: AVI
Видео: XviD, 704x384, (1,85:1), 23,976 fps, 1688 Кбит/с, 8 бит, 0.26 bit/pixel
Аудио: Русский (АС3, 2 ch (Front: L R), 48,0 KHz, 192 Kbps) Василий Горчаков
Аудио 2: Русский (АС3, 6 ch (Front: L C R, Side: L R, LFE), 48,0 KHz, 448 Kbps) Юрий Сербин (отдельно)

MediaInfo

Общее
Полное имя : G:\Самоволка (боевик, приключения 1990 год).avi
Формат : AVI
Формат/Информация : Audio Video Interleave
Размер файла : 1,46 Гбайт
Продолжительность : 1 ч. 50 м.
Общий поток : 1889 Кбит/сек
Программа кодирования : VirtualDubMod 1.5.10.2 (build 2540/release)
Библиотека кодирования : VirtualDubMod build 2540/release
Видео
Идентификатор : 0
Формат : MPEG-4 Visual
Профиль формата : Advanced Simple@L5
Параметр BVOP формата : 1
Параметр QPel формата : Нет
Параметр GMC формата : Без точки перехода
Параметр матрицы формата : Выборочная
Идентификатор кодека : XVID
Идентификатор кодека/Подсказка : XviD
Продолжительность : 1 ч. 50 м.
Битрейт : 1688 Кбит/сек
Ширина : 704 пикселя
Высота : 384 пикселя
Соотношение сторон : 1,85:1
Частота кадров : 23,976 (24000/1001) кадра/сек
Цветовое пространство : YUV
Субдискретизация насыщенности : 4:2:0
Битовая глубина : 8 бит
Тип развёртки : Прогрессивная
Метод сжатия : С потерями
Бит/(Пиксели*Кадры) : 0.260
Размер потока : 1,30 Гбайт (89%)
Библиотека кодирования : XviD 64
Аудио
Идентификатор : 1
Формат : AC-3
Формат/Информация : Audio Coding 3
Расширение режима : CM (complete main)
Параметр Endianness формата : Big
Идентификатор кодека : 2000
Продолжительность : 1 ч. 50 м.
Вид битрейта : Постоянный
Битрейт : 192 Кбит/сек
Каналы : 2 канала
Расположение каналов : Front: L R
Частота : 48,0 КГц
Частота кадров : 31,250 кадров/сек (1536 spf)
Метод сжатия : С потерями
Размер потока : 151 Мбайт (10%)
Выравнивание : Разделение по промежуткам
Продолжительность промежутка : 42 мс. (1,00 видеокадр)
Время предзагрузки промежутка : 500 мс.

Скриншот c названием фильма

Скриншоты

[cybertorrent.ru].t153.torrent 
Торрент: Зарегистрирован [ 2019-03-18 10:04 ] · 11323A480A421CF8794A0934D52151A13FDFBF

Скачать .torrent

Скачать

19 KB

Статус: проверено
Скачан: 0 раз
Размер: 1,8 GB
terms.php
Профиль ЛС
Показать сообщения:    

Текущее время: 16-Окт 23:58

Часовой пояс: UTC ± 0



Вы не можете начинать темы
Вы не можете отвечать на сообщения
Вы не можете редактировать свои сообщения
Вы не можете удалять свои сообщения
Вы не можете голосовать в опросах
Вы не можете прикреплять файлы к сообщениям
Вы можете скачивать файлы