Статистика раздачи
Размер:  1,46 GB   |    Зарегистрирован:  3 месяца 6 дней   |    Скачан:  0 раз

Полного источника не было: Никогда

Личеров:  3  [  0 KB/s  ]  
 
   
 
 

lopster ®

Пол:
Не указан
Стаж:
3 месяца 6 дней
Сообщений:
612

Сон в начале тумана
Жанр: Драма, экранизация
Год выпуска: 1994
Продолжительность: 01:26:00
Режиссёр: Барас Халзанов
В ролях: Пётр Юрченков (ст.), Дугаржав Батцэцэг, Барас Халзанов, Владимир Кондратьев, Екатерина Ляхова, Павел Дралов, Марта Зориктуева, Чимит Ринчинов, Олег Цыпилов, Арья Цыдыпов
Описание: Историческая драма. По мотивам одноименного романа Юрия Рытхэу.
Начало 20 века. Во льдах Чукотки терпит крушение судно. Канадского подданного Джона принимает семья местных жителей. Несколько лет он проведет с непонятными ему людьми, найдет здесь друзей и даже заведет семью.
Доп. информация: Производство: Зов (Свердловская киностудия)
Сэмпл: http://multi-up.com/1136583
Качество видео: VHSRip
Формат видео: AVI
Видео: XviD, 640x480, 4:3, 25,000 кадров/сек, 2182 Кбит/сек
Аудио: Русский, MP3, 48,0 КГц, 224 Кбит/с, 2 канала
http://cybertorrent.ru/viewtopic.php?t=1592215
http://screenshotcomparison.com/comparison/197794/picture:0

MediaInfo

Общее
Полное имя : C:\Users\Победа\Downloads\Son.V.Nachale.Tumana.1994.DivX.VHSRip.avi
Формат : AVI
Формат/Информация : Audio Video Interleave
Размер файла : 1,46 Гбайт
Продолжительность : 1 ч. 26 м.
Общий поток : 2416 Кбит/сек
Видео
Идентификатор : 0
Формат : MPEG-4 Visual
Профиль формата : Advanced Simple@L5
Параметр BVOP формата : 2
Параметр QPel формата : Нет
Параметр GMC формата : Без точки перехода
Параметр матрицы формата : Default (H.263)
Идентификатор кодека : XVID
Идентификатор кодека/Подсказка : XviD
Продолжительность : 1 ч. 26 м.
Битрейт : 2182 Кбит/сек
Ширина : 640 пикселей
Высота : 480 пикселей
Соотношение сторон : 4:3
Частота кадров : 25,000 кадров/сек
Цветовое пространство : YUV
Субдискретизация насыщенности : 4:2:0
Битовая глубина : 8 бит
Тип развёртки : Прогрессивная
Метод сжатия : С потерями
Бит/(Пиксели*Кадры) : 0.284
Размер потока : 1,32 Гбайт (90%)
Библиотека кодирования : XviD 64
Аудио
Идентификатор : 1
Формат : MPEG Audio
Версия формата : Version 1
Профиль формата : Layer 3
Режим : Joint stereo
Расширение режима : MS Stereo
Идентификатор кодека : 55
Идентификатор кодека/Подсказка : MP3
Продолжительность : 1 ч. 26 м.
Вид битрейта : Постоянный
Битрейт : 224 Кбит/сек
Каналы : 2 канала
Частота : 48,0 КГц
Метод сжатия : С потерями
Размер потока : 139 Мбайт (9%)
Выравнивание : Разделение по промежуткам
Продолжительность промежутка : 40 мс. (1,00 видеокадр)
Время предзагрузки промежутка : 500 мс.
Библиотека кодирования : LAME3.96.1

Скриншот c названием фильма

Скриншоты

[cybertorrent.ru].t153.torrent 
Торрент: Зарегистрирован [ 2018-02-15 13:57 ] · 9E9D0503B048216059FE12D5A53332993E11DE61

Скачать .torrent

Скачать

30 KB

Статус: проверено
Скачан: 0 раз
Размер: 1,46 GB
Профиль [ЛС]
Показать сообщения:    

Текущее время: 21-Май 18:55

Часовой пояс: UTC ± 0



Вы не можете начинать темы
Вы не можете отвечать на сообщения
Вы не можете редактировать свои сообщения
Вы не можете удалять свои сообщения
Вы не можете голосовать в опросах
Вы не можете прикреплять файлы к сообщениям
Вы можете скачивать файлы