Статистика раздачи
Нет
 
     
 
 

MAGNAT ®

Пол:
Мужской
Стаж:
2 года 6 месяцев
Сообщений:
11696

Откуда: Москва

7 дней на раздаче!День везения Год выпуска: 2012
Страна: Россия
Киностудия:
Жанр: мультфильм, короткометражка
Продолжительность: 00:07:17
Перевод: не требуется
субтитры: отсутствуют-Режиссёр: Николай Титов-Описание: Ремейк старого доброго советского кукольного мультфильма. "День везения" рассказывает про застенчивого бегемотика по имени Топ. Он был очень скромным, молчаливым и все время грустным, потому что жил на самом краю света. Топ мечтал с кем-нибудь поговорить, чтобы к нему кто-нибудь пришел в гости, хотя бы самый обычный прохожий. Топ даже заготовил сценарий для такого случая. Но Топу хронически не везло, никто не приходил к нему в гости, и никто никогда не проходил мимо. Но однажды, обычным солнечным днем на горизонте появился кот по имени Мармеладий. У него не было дома, поэтому он шел куда глаза глядят и больше всего на свете хотел, чтобы его кто-нибудь позвал в гости. Беда в том, что Мармеладий был очень гордым, поэтому никому и никогда не признавался в своих желаниях. И вот этим днем две одинокие души нашли друг друга.-Качество: WEBRip 1080p
Формат: MKV
Видео кодек: AVC
Аудио кодек: AAC
Видео: 1920x1080, 25 fps, ~5000 kbps, 0.096 bit/pixel
Аудио: 48kHz, AAC, 2ch, 321 kbps

MediaInfo

Общее
Уникальный идентификатор : 146368266308768421900657555581095666482 (0x6E1D80B0E53BBF0607A10E6167F86332)
Полное имя : D:\Mult\Союзмультфильм3\День везения.2012.WEBRip 1080p.mkv
Формат : Matroska
Версия формата : Version 4 / Version 2
Размер файла : 277 Мбайт
Продолжительность : 7 м. 17 с.
Общий поток : 5312 Кбит/сек
Дата кодирования : UTC 2019-12-19 19:50:58
Программа кодирования : mkvmerge v40.0.0 ('Old Town Road + Pony') 64-bit
Библиотека кодирования : libebml v1.3.9 + libmatroska v1.5.2
Видео
Идентификатор : 1
Формат : AVC
Формат/Информация : Advanced Video Codec
Профиль формата : High@L4
Настройки формата : CABAC / 3 Ref Frames
Параметр CABAC формата : Да
Параметр RefFrames формата : 3 кадра
Идентификатор кодека : V_MPEG4/ISO/AVC
Продолжительность : 7 м. 17 с.
Битрейт : 5000 Кбит/сек
Ширина : 1920 пикселей
Высота : 1080 пикселей
Соотношение сторон : 16:9
Режим частоты кадров : Постоянный
Частота кадров : 25,000 кадров/сек
Цветовое пространство : YUV
Субдискретизация насыщенности : 4:2:0
Битовая глубина : 8 бит
Тип развёртки : Прогрессивная
Бит/(Пиксели*Кадры) : 0.096
Размер потока : 260 Мбайт (94%)
Библиотека кодирования : x264 core 142 r2479 dd79a61
Настройки программы : cabac=1 / ref=3 / deblock=1:0:0 / analyse=0x3:0x133 / me=hex / subme=6 / psy=1 / psy_rd=1.00:0.00 / mixed_ref=0 / me_range=16 / chroma_me=1 / trellis=1 / 8x8dct=1 / cqm=0 / deadzone=21,11 / fast_pskip=0 / chroma_qp_offset=-2 / threads=72 / lookahead_threads=8 / sliced_threads=0 / nr=0 / decimate=1 / interlaced=0 / bluray_compat=0 / constrained_intra=0 / bframes=3 / b_pyramid=1 / b_adapt=2 / b_bias=0 / direct=1 / weightb=1 / open_gop=0 / weightp=2 / keyint=96 / keyint_min=49 / scenecut=0 / intra_refresh=0 / rc_lookahead=40 / rc=2pass / mbtree=1 / bitrate=5000 / ratetol=1.0 / qcomp=0.60 / qpmin=0 / qpmax=69 / qpstep=4 / cplxblur=20.0 / qblur=0.5 / ip_ratio=1.40 / aq=1:1.00
Default : Да
Forced : Нет
Цветовой диапазон : Limited
Основные цвета : BT.709
Характеристики трансфера : BT.709
Коэффициенты матрицы : BT.709
Аудио
Идентификатор : 2
Формат : AAC
Формат/Информация : Advanced Audio Codec
Профиль формата : LC
Идентификатор кодека : A_AAC-2
Продолжительность : 7 м. 17 с.
Битрейт : 321 Кбит/сек
Каналы : 2 канала
Расположение каналов : Front: L R
Частота : 48,0 КГц
Частота кадров : 46,875 кадров/сек (1024 SPF)
Метод сжатия : С потерями
Задержка видео : -80 мс.
Размер потока : 16,7 Мбайт (6%)
Язык : Russian
Default : Да
Forced : Нет
Профиль [ЛС]
Показать сообщения:    

Текущее время: 20-Окт 03:45

Часовой пояс: UTC ± 0



Вы не можете начинать темы
Вы не можете отвечать на сообщения
Вы не можете редактировать свои сообщения
Вы не можете удалять свои сообщения
Вы не можете голосовать в опросах
Вы не можете прикреплять файлы к сообщениям
Вы не можете скачивать файлы