Статистика раздачи
Размер:  1,37 GB   |    Зарегистрирован:  3 месяца 12 дней   |    Скачан:  0 раз
Сидов:  70  [  0 KB/s  ]   Личеров:  3  [  0 KB/s  ]  
 
   
 
 

lopster ®

Пол:
Не указан
Стаж:
3 месяца 12 дней
Сообщений:
612

Моя революция - Жанр: Драма, приключения, триллер
Год выпуска: 2016
Продолжительность: 01:34:54-Режиссёр: Александр Карпиловский-В ролях: Иван Жидков, Игорь Миркурбанов, Владимир Епифанцев, Елизавета Саксина, Макс Уральский, Анна Носатова, Клим Бердинский, Ирина Рындина, Максим Сапрыкин (II), Елена Морозова, Александр Боровиков, Пётр Ступин, Александр Карпиловский, Виктор Пипа, Лилия Кондрова, Василий Фролов-Описание: Артур – тридцатилетний житель мегаполиса с обычными проблемами типа нехватки денег, отсутствия взаимопонимания с бывшей женой, матерью его ребёнка, и самодурства деспота-начальника. Он пишет речи для кандидата в народные избранники и обладателя машины с «мигалкой», прилежно соблюдая известные каждому правила игры в больших и маленьких людей. Но всё меняется, когда судьба сводит его со случайным попутчиком. Конфликт интеллигентного клерка с помешанным на войне психопатом даёт старт игре, ставка в которой - жизнь…-Релиз от: -Сэмпл: http://multi-up.com/1137006-Качество видео: HDTVRip
Формат видео: AVI
Видео: 720x400 (16:9), 25.000 fps, XviD build 73, 1888 Kbps, 0.26 Bits/Pixel
Аудио: 48 kHz, AC3 Dolby Digital, 2 ch, 192 Kbps

MediaInfo

General
Complete name : Downloads\Моя революция.2016.HDTVRip.files-x.avi
Format : AVI
Format/Info : Audio Video Interleave
File size : 1.37 GiB
Duration : 1h 33mn
Overall bit rate : 2 090 Kbps
Writing application : VirtualDubMod 1.5.10.3 | www.virtualdub-fr.org || (build 2550/release)
Writing library : VirtualDubMod build 2550/release
Video #0
ID : 0
Format : MPEG-4 Visual
Format profile : Advanced Simple@L5
Format settings, BVOP : 1
Format settings, QPel : No
Format settings, GMC : No warppoints
Format settings, Matrix : Custom
Codec ID : XVID
Codec ID/Hint : XviD
Duration : 1h 33mn
Bit rate : 1 888 Kbps
Width : 720 pixels
Height : 400 pixels
Display aspect ratio : 16:9
Frame rate : 25.000 fps
Color space : YUV
Chroma subsampling : 4:2:0
Bit depth : 8 bits
Scan type : Progressive
Compression mode : Lossy
Bits/(Pixel*Frame) : 0.262
Stream size : 1.24 GiB (90%)
Writing library : XviD 73
Audio #1
ID : 1
Format : AC-3
Format/Info : Audio Coding 3
Mode extension : CM (complete main)
Format settings, Endianness : Big
Codec ID : 2000
Duration : 1h 33mn
Bit rate mode : Constant
Bit rate : 192 Kbps
Channel(s) : 2 channels
Channel positions : Front: L R
Sampling rate : 48.0 KHz
Bit depth : 16 bits
Compression mode : Lossy
Stream size : 129 MiB (9%)
Alignment : Split accross interleaves
Interleave, duration : 40 ms (1.00 video frame)
Interleave, preload duration : 500 ms

Скриншот c названием фильма

Скриншоты

[cybertorrent.ru].t154.torrent 
Торрент: Зарегистрирован [ 2018-02-15 13:57 ] · 1D0339A29D4A074A0E06DB1ED652842A4B85EA64

Скачать .torrent

Скачать

14 KB

Статус: проверено
Скачан: 0 раз
Размер: 1,37 GB
Профиль [ЛС]
Показать сообщения:    

Текущее время: 28-Май 08:08

Часовой пояс: UTC ± 0



Вы не можете начинать темы
Вы не можете отвечать на сообщения
Вы не можете редактировать свои сообщения
Вы не можете удалять свои сообщения
Вы не можете голосовать в опросах
Вы не можете прикреплять файлы к сообщениям
Вы можете скачивать файлы