Статистика раздачи
Размер:  1,63 GB   |    Зарегистрирован:  6 месяцев 21 день   |    Скачан:  0 раз

Полного источника не было: Никогда

   
 

serzh ®

Пол:
Не указан
Стаж:
7 месяцев 6 дней
Сообщений:
384

Большой секс-скандал по-американски /
The Great American Sex Scandal

Страна: США
Жанр: комедия
Год выпуска: 1990
Продолжительность: 01:34:24
Перевод: Авторский (одноголосый закадровый) Михалёв
Субтитры: нет
Оригинальная аудиодорожка: английский
Режиссер: Майкл Шульц / Michael Schultz
В ролях: Бронсон Пиншо (в нескольких ролях), Хитер Локлир, Стивен Болдуин, Мэдхен Амик, Линн Редгрейв, Уильям Дж. Шиллинг, Трэйси Скоггинс, Реджинальд ВелДжонсон, Род МакКери, Дайан Делано, Илен Графф, Барбара Боссон
Описание: Рассматривается дело о хищении. Подсудимый — скромный бухгалтер. Одна из свидетельниц — сексуальная секретарша, которая рассказывает нечто интересное о подсудимом. Бухгалтер в процессе выглядит уже не только растратчиком, в нём есть что-то необычное, вокруг него секс-скандал — всё это привлекает прессу и внимание женщин к процессу.
Для того чтобы на присяжных никто не мог повлиять — а сделать это уже хочется, судья решает их изолировать в отдельной гостинице, чтобы их жёны и любовницы не пытались изменить ход процесса и вызволить незадачливого растратчика. В процессе всего этого разбирательства возникает множество недоразумений и комических ситуаций. И почти у каждого присяжного возникает свой секс-скандал.
Сэмпл: https://yadi.sk/i/xV_wbw2p6uhc6w
Качество видео: DVDRip-AVC
Формат видео: MKV
Видео: AVC, 716x480@716x540 (4:3), ~2090 kbps, 23,976 fps
Аудио: AC3, 48 khz, 2.0, 192 kbps - Алексей Михалёв
Аудио 2: AC3, 48 khz, 2.0, 192 kbps - english

MediaInfo

Общее
Уникальный идентификатор : 89059862949887443283725731513547874193 (0x43004E41B02896EFE682CEBC14BFDF91)
Полное имя : D:\Torrents\Great American Sex Scandal [1990 DVDRip-AVC].mkv
Формат : Matroska
Версия формата : Version 4
Размер файла : 1,63 Гбайт
Продолжительность : 1 ч. 34 м.
Общий поток : 2479 Кбит/сек
Дата кодирования : UTC 2019-03-25 19:39:58
Программа кодирования : mkvmerge v19.0.0 ('Brave Captain') 32-bit
Библиотека кодирования : libebml v1.3.5 + libmatroska v1.4.8
Видео
Идентификатор : 1
Формат : AVC
Формат/Информация : Advanced Video Codec
Профиль формата : High@L3.1
Настройки формата : CABAC / 9 Ref Frames
Параметр CABAC формата : Да
Параметр RefFrames формата : 9 кадров
Идентификатор кодека : V_MPEG4/ISO/AVC
Продолжительность : 1 ч. 34 м.
Битрейт : 2093 Кбит/сек
Ширина : 716 пикселей
Высота : 480 пикселей
Соотношение сторон : 4:3
Соотношение сторон в оригинале : 4:3
Режим частоты кадров : Постоянный
Частота кадров : 23,976 (24000/1001) кадра/сек
Цветовое пространство : YUV
Субдискретизация насыщенности : 4:2:0
Битовая глубина : 8 бит
Тип развёртки : Прогрессивная
Бит/(Пиксели*Кадры) : 0.254
Размер потока : 1,38 Гбайт (84%)
Библиотека кодирования : x264 core 142 r2479 dd79a61
Настройки программы : cabac=1 / ref=9 / deblock=1:-2:-2 / analyse=0x3:0x133 / me=umh / subme=9 / psy=1 / psy_rd=1.00:0.00 / mixed_ref=1 / me_range=24 / chroma_me=1 / trellis=2 / 8x8dct=1 / cqm=0 / deadzone=21,11 / fast_pskip=0 / chroma_qp_offset=-2 / threads=6 / lookahead_threads=1 / sliced_threads=0 / nr=0 / decimate=1 / interlaced=0 / bluray_compat=0 / constrained_intra=0 / bframes=6 / b_pyramid=2 / b_adapt=2 / b_bias=0 / direct=3 / weightb=1 / open_gop=0 / weightp=2 / keyint=240 / keyint_min=24 / scenecut=40 / intra_refresh=0 / rc_lookahead=50 / rc=crf / mbtree=1 / crf=19.0 / qcomp=0.60 / qpmin=0 / qpmax=69 / qpstep=4 / ip_ratio=1.40 / aq=1:1.20
Default : Да
Forced : Нет
Цветовой диапазон : Limited
Основные цвета : BT.601 NTSC
Характеристики трансфера : BT.709
Коэффициенты матрицы : BT.601
Аудио #1
Идентификатор : 2
Формат : AC-3
Формат/Информация : Audio Coding 3
Коммерческое название : Dolby Digital
Идентификатор кодека : A_AC3
Продолжительность : 1 ч. 34 м.
Вид битрейта : Постоянный
Битрейт : 192 Кбит/сек
Каналы : 2 канала
Channel layout : L R
Частота : 48,0 КГц
Частота кадров : 31,250 кадров/сек (1536 SPF)
Битовая глубина : 16 бит
Метод сжатия : С потерями
Задержка видео : -83 мс.
Размер потока : 130 Мбайт (8%)
Заголовок : AVO Mihalev
Язык : Russian
ServiceKind/String : Complete Main
Default : Да
Forced : Нет
Аудио #2
Идентификатор : 3
Формат : AC-3
Формат/Информация : Audio Coding 3
Коммерческое название : Dolby Digital
Идентификатор кодека : A_AC3
Продолжительность : 1 ч. 34 м.
Вид битрейта : Постоянный
Битрейт : 192 Кбит/сек
Каналы : 2 канала
Channel layout : L R
Частота : 48,0 КГц
Частота кадров : 31,250 кадров/сек (1536 SPF)
Битовая глубина : 16 бит
Метод сжатия : С потерями
Задержка видео : -83 мс.
Размер потока : 130 Мбайт (8%)
Язык : English
ServiceKind/String : Complete Main
Default : Нет
Forced : Нет
Меню
00:00:00.000 : :Chapter 1
00:16:30.781 : :Chapter 2
00:31:00.066 : :Chapter 3
00:46:06.764 : :Chapter 4
01:01:34.691 : :Chapter 5
01:17:11.418 : :Chapter 6

Скриншот c названием фильма

Скриншоты

[cybertorrent.ru].t1540.torrent 
Торрент: Зарегистрирован [ 2019-03-28 16:49 ] · BFC921921B12F6495C851A904BB9D6A06CAA9FA6

Скачать .torrent

Скачать

17 KB

Статус: проверено
Скачан: 0 раз
Размер: 1,63 GB
terms.php
Профиль ЛС
Показать сообщения:    

Текущее время: 19-Окт 05:30

Часовой пояс: UTC ± 0



Вы не можете начинать темы
Вы не можете отвечать на сообщения
Вы не можете редактировать свои сообщения
Вы не можете удалять свои сообщения
Вы не можете голосовать в опросах
Вы не можете прикреплять файлы к сообщениям
Вы можете скачивать файлы