Статистика раздачи
Нет
 
     
 
 

MAGNAT ®

Пол:
Мужской
Стаж:
2 года 8 месяцев
Сообщений:
13012

Откуда: Москва

-Волки и Овцы: Ход свиньёй-- -Страна: Россия
Жанр: мультфильм, семейный, комедия, приключения
Продолжительность: 01:11:45
Год выпуска: 2018
Перевод: Не требуется
Субтитры: нет-Режиссёр: Владимир Николаев-Роли озвучивали: Елизавета Боярская, Максим Матвеев, Галина Корнева, Антон Юрьев, Алексей Сигаев, Даниил Эльдаров-Описание: В спокойной и размеренной жизни объединенного городка волков и овец появляются неожиданные гости — песец и маленькая овечка. Никто не ожидал, что они принесут с собой смертельную опасность, преодолеть которую можно лишь всем вместе. Ведь только сообща решаются большие проблемы и серьезные задачи — в единстве сила!-Качество: WEB-DLRip-AVC / WEB-DL 1080p
Формат: MKV-Видео: MPEG-4 AVC, 890x372 (2.40:1), 25.000 fps, ~1171 kbps avg, 0.141 bit/pixel
Аудио: 48 kHz, AC3 Dolby Digital, 2/0 (L,R) ch, ~192 kbps avg-

MediaInfo

Код:
Complete name : D:\Раздача\Волки и Овцы - Ход свиньёй (2018) WEB-DLRip-AVC_ivanes.mkv
Format : Matroska
Format version : Version 2
File size : 700 MiB
Duration : 1 h 11 min
Overall bit rate : 1 364 kb/s
Movie name : Волки и Овцы - Ход свиньёй (2018) WEB-DLRip-AVC_ivanes
Encoded date : UTC 2019-02-27 18:19:03
Writing application : mkvmerge v4.4.0 ('Die Wiederkehr') сборка от Jan 3 2011 21:40:45
Writing library : libebml v1.0.0 + libmatroska v1.0.0
Cover : Yes
Attachments : cover.jpg
Video
ID : 1
Format : AVC
Format/Info : Advanced Video Codec
Format profile : High@L4.1
Format settings, CABAC : Yes
Format settings, RefFrames : 11 frames
Codec ID : V_MPEG4/ISO/AVC
Duration : 1 h 11 min
Bit rate : 1 171 kb/s
Width : 890 pixels
Height : 372 pixels
Display aspect ratio : 2.40:1
Frame rate mode : Constant
Frame rate : 25.000 FPS
Color space : YUV
Chroma subsampling : 4:2:0
Bit depth : 8 bits
Scan type : Progressive
Bits/(Pixel*Frame) : 0.141
Stream size : 588 MiB (84%)
Title : Rip by ivanes
Writing library : x264 core 157 r2935 545de2f
Encoding settings : cabac=1 / ref=11 / deblock=1:-2:-2 / analyse=0x3:0x113 / me=umh / subme=10 / psy=1 / psy_rd=1.00:0.00 / mixed_ref=1 / me_range=32 / chroma_me=1 / trellis=2 / 8x8dct=1 / cqm=0 / deadzone=21,11 / fast_pskip=0 / chroma_qp_offset=-2 / threads=12 / lookahead_threads=2 / sliced_threads=0 / nr=0 / decimate=1 / interlaced=0 / bluray_compat=0 / constrained_intra=0 / bframes=13 / b_pyramid=2 / b_adapt=2 / b_bias=0 / direct=1 / weightb=1 / open_gop=0 / weightp=2 / keyint=250 / keyint_min=25 / scenecut=40 / intra_refresh=0 / rc_lookahead=60 / rc=2pass / mbtree=0 / bitrate=1171 / ratetol=1.0 / qcomp=0.60 / qpmin=0 / qpmax=69 / qpstep=4 / cplxblur=20.0 / qblur=0.5 / vbv_maxrate=50000 / vbv_bufsize=62500 / nal_hrd=none / filler=0 / ip_ratio=1.40 / pb_ratio=1.30 / aq=1:1.00
Default : Yes
Forced : No
Statistics Tags Issue : mkvmerge v10.0.0 ('To Drown In You') 64bit 2019-02-27 18:18:15 / mkvmerge v4.4.0 ('Die Wiederkehr') сборка от Jan 3 2011 21:40:45 2019-02-27 18:19:03
FromStats_BitRate : 1170313
FromStats_Duration : 01:11:45.400000000
FromStats_FrameCount : 107635
FromStats_StreamSize : 629833242
Audio
ID : 2
Format : AC-3
Format/Info : Audio Coding 3
Format settings, Endianness : Big
Codec ID : A_AC3
Duration : 1 h 11 min
Bit rate mode : Constant
Bit rate : 192 kb/s
Channel(s) : 2 channels
Channel positions : Front: L R
Sampling rate : 48.0 kHz
Frame rate : 31.250 FPS (1536 SPF)
Bit depth : 16 bits
Compression mode : Lossy
Stream size : 98.5 MiB (14%)
Language : Russian
Service kind : Complete Main
Default : Yes
Forced : No

Скриншоты

Профиль [ЛС]
Показать сообщения:    

Текущее время: 01-Дек 03:29

Часовой пояс: UTC ± 0



Вы не можете начинать темы
Вы не можете отвечать на сообщения
Вы не можете редактировать свои сообщения
Вы не можете удалять свои сообщения
Вы не можете голосовать в опросах
Вы не можете прикреплять файлы к сообщениям
Вы не можете скачивать файлы