Статистика раздачи
Размер:  4,97 GB   |    Зарегистрирован:  7 месяцев 6 дней   |    Скачан:  0 раз

Полного источника не было: Никогда

 
   
 
 

antikvar ®

Пол:
Не указан
Стаж:
7 месяцев 7 дней
Сообщений:
50

7.04.14 - Добавлена 25 и 26 серия. Просьба перекачать торрент.Совершенный Человек-Паук / Великий Человек-паук / Ultimate Spider-Man- Год выпуска: 2013
Страна: США
Жанр: мультфильм, фантастика, боевик, приключения
Продолжительность: 00:22:08
Перевод: 1)Любительский (многоголосый, закадровый) р/г SerGoLeOne
2)Любительский (двухголосый закадровый) ZM-SHOW
1-14
Субтитры: русские 1-8,10,13
Режиссер: Алекс Сото, Джефф Аллен, Филип Пиньотти, ...
Сценарий: Джо Кэйси, Джо Келли, Дункан Руле, ...
Продюсер: Джозеф Лоуб III, Джо Кэйси, Джо Келли, ...
Композитор: Кевин Мантей
Монтаж: Джонатан Полк
В ролях: Дрейк Белл / Drake Bell (Peter Parker), Кейтлин Тейлор Лав / Caitlyn Taylor Love (Ava Ayala), Оги Бэнкс / Ogie Banks (Luke Cage), Грег Сайпс / Greg Cipes (Danny Rand,), Чи МакБрайд / Chi McBride (Nick Fury,), Логан Миллер / Logan Miller (Sam Alexander,), Кларк Грегг / Clark Gregg (Agent Phil Coulson,, Мэтт Лантер / Matt Lanter (Harry Osborn, )

Описание: Мультсериал основан на одноимённой серии комиксов, повествующих о ещё молодом Человеке-пауке, которому Ник Фьюри предложил пройти тренировочный курс для улучшения собственных навыков. В ходе обучения Человек-паук обзаводится командой из Люка Кейджа, Железного кулака, Новы и Белой тигрицы. В ходе тренировок ему предоставляется собственный мотоцикл (Спайдерцикл). В одной из серий Человек-паук встретит Железного Человека, который сделает ему броню Железного Паука.
Премьера (мир): 1 апреля 2012, ...
Премьера (РФ): 4 декабря 2012
Релиз на DVD: 19 марта 2013, «Уолт Дисней Компани СНГ», ...-- --Альтернативные раздачи
Формат: AVI
Видео кодек: XviD 73
Аудио кодеk: MP3
Видео: 624x352 (16:9), 23.976 fps, XviD 73, 875 Kbps
Аудио: Аудио #1:MP3, 128 Kbps, 48.0 KHz, 2 ch MVO SerGoLeOne
Аудио #2:MP3, 128 Kbps, 48.0 KHz, 2 ch DVO ZM-SHOW 1-14 серию
Аудио #3: MP3, 128 Kbps, 48.0 KHz, 2 ch Eng

МедиаИнфо

[code]бщее
Полное имя : D:\Ultimate Spider-Man 02\01. The Lizard.avi
Формат : AVI
Формат/Информация : Audio Video Interleave
Размер файла : 202 Мбайт
Продолжительность : 22 м.
Общий поток : 1277 Кбит/сек
Программа кодирования : VirtualDubMod 1.5.10.3 | www.virtualdub-fr.org || (build 2550/release)
Библиотека кодирования : VirtualDubMod build 2550/release
Видео
Идентификатор : 0
Формат : MPEG-4 Visual
Профиль формата : Advanced Simple@L5
Параметр BVOP формата : 1
Параметр QPel формата : Нет
Параметр GMC формата : Без точки перехода
Параметр матрицы формата : Default (H.263)
Идентификатор кодека : DX50
Идентификатор кодека/Подсказка : DivX 5
Продолжительность : 22 м.
Битрейт : 875 Кбит/сек
Ширина : 624 пикселя
Высота : 352 пикселя
Соотношение сторон : 16:9
Частота кадров : 23,976 кадра/сек
Цветовое пространство : YUV
Субдискретизация насыщенности : 4:2:0
Битовая глубина : 8 бит
Тип развёртки : Прогрессивная
Метод сжатия : С потерями
Бит/(Пиксели*Кадры) : 0.166
Размер потока : 138 Мбайт (68%)
Библиотека кодирования : XviD 73
Аудио #1
Идентификатор : 1
Формат : MPEG Audio
Версия формата : Version 1
Профиль формата : Layer 3
Режим : Joint stereo
Расширение режима : MS Stereo
Идентификатор кодека : 55
Идентификатор кодека/Подсказка : MP3
Продолжительность : 22 м.
Вид битрейта : Постоянный
Битрейт : 128 Кбит/сек
Каналы : 2 канала
Частота : 48,0 КГц
Метод сжатия : С потерями
Размер потока : 20,3 Мбайт (10%)
Выравнивание : Соединение по промежуткам
Продолжительность промежутка : 42 мс. (1,00 видеокадр)
Время предзагрузки промежутка : 504 мс.
Библиотека кодирования : LAME3.99r
Настройки программы : -m j -V 4 -q 3 -lowpass 17 -b 128
Аудио #2
Идентификатор : 2
Формат : MPEG Audio
Версия формата : Version 1
Профиль формата : Layer 3
Идентификатор кодека : 55
Идентификатор кодека/Подсказка : MP3
Продолжительность : 22 м.
Вид битрейта : Постоянный
Битрейт : 128 Кбит/сек
Каналы : 2 канала
Частота : 48,0 КГц
Метод сжатия : С потерями
Размер потока : 20,3 Мбайт (10%)
Выравнивание : Соединение по промежуткам
Продолжительность промежутка : 42 мс. (1,00 видеокадр)
Время предзагрузки промежутка : 504 мс.
Библиотека кодирования : LAME3.99r
Настройки программы : -m s -V 4 -q 2 -lowpass 17 -b 128
Аудио #3
Идентификатор : 3
Формат : MPEG Audio
Версия формата : Version 1
Профиль формата : Layer 3
Режим : Joint stereo
Расширение режима : MS Stereo
Идентификатор кодека : 55
Идентификатор кодека/Подсказка : MP3
Продолжительность : 22 м.
Вид битрейта : Постоянный
Битрейт : 128 Кбит/сек
Каналы : 2 канала
Частота : 48,0 КГц
Метод сжатия : С потерями
Размер потока : 20,3 Мбайт (10%)
Выравнивание : Соединение по промежуткам
Продолжительность промежутка : 42 мс. (1,00 видеокадр)
Время предзагрузки промежутка : 504 мс.
Библиотека кодирования : LAME3.99r
Настройки программы : -m j -V 4 -q 3 -lowpass 17 -b 128

Сезоны

Сезон 2
2.01The Lizard / Ящер (21.01.2013)
2.02 Electro / Электро (21.01.2013)
2.03 The Rhino / Рино (27.01.2013)
2.04 Kraven the Hunter / Крэйвэн-Охотник (03.02.2013)
2.05 Hawkeye / Соколиный Глаз (10.02.2013)
2.06 Sinister Six / Зловещая шестёрка (17.02.2013)
2.07 Человек-Паук! / Spidah-Man! (24.03.2013)
2.08 Carnage/ Карнаж/Потрошитель/Побоище! (31.03.2013)
2.09 House Arrest/ Домашний арест (7.04.2013)
2.10 The Man-Wol f/ Человек-Волк (14.04.2013)
2.11 Рой / Swarm (21.04.2013)
2.12 Малышка-паучишка / Itsy Bitsy Spider-Man (9.06.2013)
2.13 Путешествие Железного Кулака / Journey of the Iron Fist (16.06.2013)
2.14 Невероятный человек-Халк / The Incredible Spider-Hulk (23.06.2013)
2.15 Останься со стэном / Stan By Me (7.07.2013)
2.16 Ultimate Deadpool / Ultimate Deadpool (14.07.2013)
2.17 Веномная бомба/ Бомба яда// Ultimate Deadpool (21.07.2013)
2.18 Стражи Галактики / Guardians of the Galaxy (28.07.2013)
2.19 Останься со Стэном / Stan By Me (28.07.2013)
2.20 Конец игры / Game Over (28.07.2013)
2.21 Блэйд / Лезвие/Лист / Blade (5.10.2013)
2.22 Воющие коммандос/ The Howling Commandos (5.10.2013)
2.23 Второй случайный герой /Второй шанс героя/Секундный шанс героя/Second Chance Hero (5.10.2013)
2.24 Возвращение Песочного Человека / Sandman Returns (5.10.2013)
2.25 Возвращение Зловещей Шестёрки/ Return of the Sinister Six (5.10.2013)
2.26 Совершенный / Ultimate (5.10.2013)
Автор рипа: Semak
[cybertorrent.ru].t1544.torrent 
Торрент: Зарегистрирован [ 2018-02-16 08:13 ] · DF0646F06B6DEFAD214975CF760413069CF34952

Скачать .torrent

Скачать

202 KB

Статус: проверено
Скачан: 0 раз
Размер: 4,97 GB
Профиль [ЛС]
Показать сообщения:    

Текущее время: 22-Сен 18:53

Часовой пояс: UTC ± 0



Вы не можете начинать темы
Вы не можете отвечать на сообщения
Вы не можете редактировать свои сообщения
Вы не можете удалять свои сообщения
Вы не можете голосовать в опросах
Вы не можете прикреплять файлы к сообщениям
Вы можете скачивать файлы
Torrents24.ru открытый BitTorrent Torrents24.pl открытый BitTorrent CyberTorrent.ru открытый BitTorrent BtList.ru рейтинг BitTorrent трекеров Яндекс.Метрика