Статистика раздачи
Размер:  18,13 GB   |    Зарегистрирован:  5 месяцев 5 дней   |    Скачан:  0 раз

Полного источника не было: Никогда

 
   
 
 

antikvar ®

Пол:
Не указан
Стаж:
5 месяцев 6 дней
Сообщений:
50

Оригинальное название: Ultimate Spider-Man
Русское название: Совершенный Человек-Паук
Год выпуска: 2013
Страна: США
Жанр: Мультсериал, приключения, экранизация комиксов, комедия
Продолжительность: 20 минут [серия]
Перевод: Любительский (многоголосый, закадровый) р/г SerGoLeOne
Сэмпл: скачать
Субтитры: нет
Производство: MARVEL Animated Studios
Режиссер: Тим Элдред, Алекс Сото / Tim Eldred, Alex Soto
Роли озвучивали: Дрейк Белл, Стивен Уэбер, Дж.К. Симмонс, Чи МакБрайд и другие
Описание: «Совершенный Человек-Паук» - новая интерпретация приключений знаменитого супергероя Человека-паука из комиксов MARVEL, но никак не связанная с комиксом Ultimate Spider-man (кроме внешности персонажей). Второй сезон начинается там, где закончился первый. Вся команда Человека-паука переезжает жить в дом Тёти Мэй, так как вертоносец Щ.И.Т.а пострадал после стычки с Зеленым Гоблином. В этом сезоне Человек-Паук встретится с новыми злодеями! Такими, как: Ящер, Электро, а также вас ждёт встреча со Зловещей Шестёркой. К сожалению в этом сезоне тоже есть "очень смешные вставки", но их стало чуть меньше и рисовка стала более серьезнее. (С) SerGoLeOne- -Перевод: Александр Митраков, Василий Слизень, Александр Тихонов.-Роли озвучивали:
Денис Коровин - Питер Паркер (Человек-Паук).
Михаил Кшиштовский - Нова, Майк, Батрок, Невидимка, второстепенные.
Роман Поликарпов - Нова (9, 10, 15, 17 серия).
Провайдер Ти Эйч - Железный Кулак (первые серии).
Кристиан Бодров - Железный Кулак.
Денис Строев - Ящер, Силач (первые серии), Джей Джона, Рино, Джагернаут, Дракула, Франк, Рой, Скорпио, Доктор Дум, Росомаха, Энди.
Сергей Пономарёв - Зеленый Гоблин, Электро, Соколиный Глаз, Блэйд, Тор, Мумия, Существо, Мэр, Уолтер Кейдж, Капитан Америка.
Дмитрий Рыжков - Силач (начиная с 9 серии), Джей Джона (9, 10, 15 серия), Таскмастер, Халк, Дракс.
Игорь Лущай - Месмеро, Трапстер.
Дмитрий Лунев - Агент Коулсон, Джей Джона младший, Локи, Скорпион, Ночной оборотень.
Вячеслав Козлов - Ник Фьюри, второстепенные.
Олег Варганов - Доктор Осьминог, Железный Человек, Стэн Ли, Мастер, Звёздный Лорд, диктор.
Виталий Измалков - автор (9, 15 серия),
Михаил Шорыгин - Алекс, Гарри.
Владимир Курдов - Крэйвэн-Охотник.
Данила Поперечный - Аркада, Песочный Человек.
Михаил Литвин - Дедпул.
Евгений Кокурин - Гризли, Грут.
Артемий Мирон - Флеш.
Дмитрий Балясов - Зеленый Гоблин (8 серия).
Сергей Мартынов - Реактивный Енот, второстепенные.
Юрий Сосков - Корвак.
Таисия Тришина - Аманда Кейдж, второстепенные.
Ника Стригунова - Мэри Джейн, Тётя Мэй, Тигрица, второстепенные.
Алёна Кокорина - Гамора, второстепенные.-Работа со звуком: SerGoLeOne-Формат: MKV
Видео кодек: h264
Аудио кодек: AC3
Видео: MPEG4 Video (H264) 1280x720 23.97fps ~3800Kbps
Аудио:
  • русская дорожка: Dolby AC3 48000Hz stereo 192Kbps,
  • оригинал: Dolby AC3 48000Hz 48000Hz 6ch 384Kbps
    Скриншоты:
    -

    Список серий:

    2 сезон:
    01. The Lizard (Ящер)
    02. Electro (Электро)
    03. Rhino (Рино)
    04. Kraven the Hunter (Крэйвэн-Охотник)
    05. Hawkeye (Соколиный Глаз)
    06. The Sinister Six (Зловещая шестёрка)
    07. Spidah-Man (Человек-Павук)
    08. Carnage (Карнадж)
    09. House Arrest (Домашний арест)
    10. The Man-Wolf (Человек-Волк)
    11. Swarm (Рой)
    12. Itsy Bitsy Spider-Man (Малышка-Паучишка)
    13. Journey of the Iron Fist (Путешествие Железного Кулака)
    14. The Incredible Spider-Hulk (Невероятный Пауко-Халк)
    15. Ultimate Deadpool (Совершенный Дедпул)
    16. Venom Bomb (Веномная бомба)
    17. Guardians of the Galaxy (Стражи Галактики)
    18. The Parent Trap (Родительская ловушка)
    19. Stan By Me (Останься со Стэном)
    20. Game Over (Конец игры)
    21. Blade (Блэйд)
    22. The Howling Commandos (Воющие коммандос)
    23. Second Chance Hero (Второй шанс)
    24. Sandman Returns (Возвращение Песочного Человека)
    25. Return of the Sinister Six (Возвращение Зловещей Шестёрки)
    26. Ultimate (Совершенный)

    Media Info

    Код:General
    Unique ID : 200951214062977528571846193143419358668 (0x972DCBCA1880575F93C3B11AE3EDCDCC)
    Complete name : \Ultimate Spider-Man. Season 2 (WEB-DL l 720p l SerGoLeOne)\01. The Lizard.mkv
    Format : Matroska
    Format version : Version 1
    File size : 698 MiB
    Duration : 22mn 8s
    Overall bit rate : 4 411 Kbps
    Encoded date : UTC 2013-01-17 09:12:24
    Writing application : mkvmerge v2.3.0 ('Freak U') built on Sep 8 2008 18:32:16
    Writing library : libebml v0.7.7 + libmatroska v0.8.1
    Video
    ID : 1
    Format : AVC
    Format/Info : Advanced Video Codec
    Format profile : High@L3.1
    Format settings, CABAC : No
    Format settings, ReFrames : 2 frames
    Codec ID : V_MPEG4/ISO/AVC
    Duration : 22mn 8s
    Bit rate : 3 748 Kbps
    Width : 1 280 pixels
    Height : 720 pixels
    Display aspect ratio : 16:9
    Frame rate mode : Constant
    Frame rate : 23.976 fps
    Color space : YUV
    Chroma subsampling : 4:2:0
    Bit depth : 8 bits
    Scan type : Progressive
    Bits/(Pixel*Frame) : 0.170
    Stream size : 593 MiB (85%)
    Language : English
    Default : Yes
    Forced : No
    Color primaries : BT.709
    Transfer characteristics : BT.709
    Matrix coefficients : BT.709
    Audio #1
    ID : 2
    Format : AC-3
    Format/Info : Audio Coding 3
    Mode extension : CM (complete main)
    Format settings, Endianness : Big
    Codec ID : A_AC3
    Duration : 22mn 8s
    Bit rate mode : Constant
    Bit rate : 192 Kbps
    Channel(s) : 2 channels
    Channel positions : Front: L R
    Sampling rate : 48.0 KHz
    Bit depth : 16 bits
    Compression mode : Lossy
    Stream size : 30.4 MiB (4%)
    Title : vk.com/sergoleone
    Language : Russian
    Default : Yes
    Forced : No
    Audio #2
    ID : 3
    Format : AC-3
    Format/Info : Audio Coding 3
    Mode extension : CM (complete main)
    Format settings, Endianness : Big
    Codec ID : A_AC3
    Duration : 22mn 8s
    Bit rate mode : Constant
    Bit rate : 384 Kbps
    Channel(s) : 6 channels
    Channel positions : Front: L C R, Side: L R, LFE
    Sampling rate : 48.0 KHz
    Bit depth : 16 bits
    Compression mode : Lossy
    Stream size : 60.8 MiB (9%)
    Title : Original
    Language : English
    Default : No
    Forced : No
    -альтернативные раздачи

    Внимание! Раздача ведётся путём добавления новых серий!

    Внимание! Раздача ведётся путём добавления новых серий; при каждом добавлении создётся новый торрент. Чтобы начать докачку новой серии, пользователям необходимо сделать следующее:
    (1) остановить скачивание,
    (2) удалить старый торрент у себя из клиента (старые серии удалять не надо),
    (3) скачать новый торрент и запустить его у себя в клиенте вместо старого, при этом указать клиенту путь в старую папку куда и должно происходить скачивание новых серий.
    Ваш клиент при этом должен произвести хеширование (проверку) старой папки (если не производит сам - помогите ему сделать это), и будет докачивать только те серии которых у вас ещё нет. Старые серии при этом не удаляются, а продолжают раздаваться!
    Eсли вы уже удалили старые серии, то предотвратить повторную закачку старых серий можно, отжав галочку в соответсвующих местах при запуске нового торрента.
    [cybertorrent.ru].t1547.torrent 
    Торрент: Зарегистрирован [ 2018-02-16 08:13 ] · 9743B2C798E3CB77DD6037E875258D54329F8BE0

    Скачать .torrent

    Скачать

    48 KB

    Статус: проверено
    Скачан: 0 раз
    Размер: 18,13 GB
  • Профиль [ЛС]
    Показать сообщения:    

    Текущее время: 21-Июл 13:31

    Часовой пояс: UTC ± 0



    Вы не можете начинать темы
    Вы не можете отвечать на сообщения
    Вы не можете редактировать свои сообщения
    Вы не можете удалять свои сообщения
    Вы не можете голосовать в опросах
    Вы не можете прикреплять файлы к сообщениям
    Вы можете скачивать файлы