Статистика раздачи
Размер:  1,46 GB   |    Зарегистрирован:  3 месяца 7 дней   |    Скачан:  0 раз

Полного источника не было: Никогда

 
   
 
 

lopster ®

Пол:
Не указан
Стаж:
3 месяца 7 дней
Сообщений:
612

Дед Мороз. Битва магов
Страна: Россия
Жанр: фэнтези, семейный, приключения
Год выпуска: 2016
Продолжительность: 01:56:25
Субтитры: нет-Режиссер:
Александр Войтинский-В ролях:
Фёдор Бондарчук, Алексей Кравченко, Таисия Вилкова, Никита Волков, Владимир Гостюхин, Егор Бероев, Ксения Алферова, Сергей Бадюк, Ян Цапник, Светлана Пермякова-Описание:
Юную Машу мучают видения летающих огненных монстров. Мама переживает за дочь, одноклассники посмеиваются. Но однажды в самом центре Москвы Маша видит наяву сражение крылатых огненных чудовищ с молодыми людьми, которые называют себя магами. Один из них в последний момент, спасает Машу от нападения химеры. Так Маша попадает в секретную корпорацию, где узнаёт, что Дед Мороз реально существует и, возглавляя армию магов, способных управлять снегом и льдом, охраняет Землю от вторжения темных сил.
А новогодний праздник - это магический ритуал, который каждый год совершают люди на всей планете, даже не подозревая, что участвуют в самой масштабной битве добра и зла. Дед Мороз сообщает Маше, что судьба нашего мира висит на волоске, и от Маши зависит, кто победит - свет или тьма.-Качество видео: WEB-DLRip | DED_MOROZ.BITVA_MAGOV_WEB_DL_1080p-BLUEBIRD
Формат видео: AVI
Видео: 720x304 (2.37:1), 24.000 fps, XviD build 73 ~1599 kbps avg, 0.30 bit/pixel
Аудио: 48 kHz, AC3 Dolby Digital, 2/0 (L,R) ch, ~192 kbps-Сэмпл-

MediaInfo

Код:Format : AVI
Format/Info : Audio Video Interleave
File size : 1.46 GiB
Duration : 1 h 56 min
Overall bit rate : 1 801 kb/s
Writing application : VirtualDubMod 1.5.10.3 | www.virtualdub-fr.org || (build 2550/release)
Writing library : VirtualDubMod build 2550/release
Video
ID : 0
Format : MPEG-4 Visual
Format profile : Advanced Simple@L5
Format settings, BVOP : 1
Format settings, QPel : No
Format settings, GMC : No warppoints
Format settings, Matrix : Custom
Codec ID : XVID
Codec ID/Hint : XviD
Duration : 1 h 56 min
Bit rate : 1 599 kb/s
Width : 720 pixels
Height : 304 pixels
Display aspect ratio : 2.35:1
Frame rate : 24.000 FPS
Color space : YUV
Chroma subsampling : 4:2:0
Bit depth : 8 bits
Scan type : Progressive
Compression mode : Lossy
Bits/(Pixel*Frame) : 0.304
Stream size : 1.30 GiB (89%)
Writing library : XviD 73
Audio
ID : 1
Format : AC-3
Format/Info : Audio Coding 3
Mode extension : CM (complete main)
Format settings, Endianness : Big
Codec ID : 2000
Duration : 1 h 56 min
Bit rate mode : Constant
Bit rate : 192 kb/s
Channel(s) : 2 channels
Channel positions : Front: L R
Sampling rate : 48.0 kHz
Frame rate : 31.250 FPS (1536 spf)
Bit depth : 16 bits
Compression mode : Lossy
Stream size : 160 MiB (11%)
Alignment : Split accross interleaves
Interleave, duration : 42 ms (1.00 video frame)
Interleave, preload duratio : 500 ms

Скриншоты


[cybertorrent.ru].t155.torrent 
Торрент: Зарегистрирован [ 2018-02-15 13:57 ] · 0A0F48391812DE4ED31B7F15413696FE61ACFCE0

Скачать .torrent

Скачать

15 KB

Статус: проверено
Скачан: 0 раз
Размер: 1,46 GB
Профиль [ЛС]
Показать сообщения:    

Текущее время: 22-Май 23:06

Часовой пояс: UTC ± 0



Вы не можете начинать темы
Вы не можете отвечать на сообщения
Вы не можете редактировать свои сообщения
Вы не можете удалять свои сообщения
Вы не можете голосовать в опросах
Вы не можете прикреплять файлы к сообщениям
Вы можете скачивать файлы