Статистика раздачи
Размер:  4,52 GB   |    Зарегистрирован:  6 месяцев 21 день   |    Скачан:  0 раз

Полного источника не было: Никогда

   
 

Гость ®

Пол:
Не указан

-В пустыне смерти | Into the Badlands-- • Год выпуска: 2018
• Страна: США
• Жанр: Боевик, драма, приключения, экранизация
• Продолжительность: ~ 00:43:00-• Перевод: Профессиональный (многоголосый закадровый) | LostFilm-• Режиссёр: Дэвид Добкин-• В ролях: Эмили Бичем, Сара Болгер, Орла Брэйди, Мартон Чокаш, Элли Иоаннидес, Арамис Найт, Мадлен Манток, Майкл Сил, Оливер Старк, Дэниэл Ву и др.-• Описание: Приключенческий боевик о двух друзьях. В пустыне смерти, какие испытания предстоит пройти главным героям на пути просвещения. Ради обретения высшей мудрости мастер боевых искусств Санни и его юный напарник решают пройти через неизведанные земли. Они знают, что там их будут встречать враждебно, но ради высшей цели главные герои готовы вынести всё. В основу сюжета сериала был положен китайский роман под названием «Путешествие на Запад». Во время путешествия Санни покажет в полной мере своё мастерство, а его юный друг сможет многому научиться, и владению собственным телом, и контролю над собственным духом.- -[box=#d2d2d2,#000000]Ссылка на предыдущие и альтернативные раздачи[/box]-• Качество: WEB-DLRip
• Формат: AVI
• Видео: XviD, 720x400 (16:9), 23,976 fps, ~1400 kbps
• Аудио #1: MP3, 48 kHz, 2 ch, 128 kbps, CBR - RUS
• Аудио #2: MP3, 48 kHz, 2 ch, 128 kbps, CBR - ENG
• Субтитры: отсутствуют
•• Реклама: отсутствует-

✘ MediaInfo ✘

Код:Общее
Полное имя : X:\00000\Into the Badlands (Season 03) Lostfilm\Into.the.Badlands.S03E01.XviD.LOST.MegaPeer.(qqss44).avi
Формат : AVI
Формат/Информация : Audio Video Interleave
Размер файла : 508 Мбайт
Продолжительность : 42 м.
Общий поток : 1668 Кбит/сек
Программа кодирования : VirtualDubMod 1.5.10.3 | www.virtualdub-fr.org || (build 2550/release)
Библиотека кодирования : VirtualDubMod build 2550/release
Видео
Идентификатор : 0
Формат : MPEG-4 Visual
Профиль формата : Advanced Simple@L5
Параметр BVOP формата : 2
Параметр QPel формата : Нет
Параметр GMC формата : Без точки перехода
Параметр матрицы формата : Выборочная
Идентификатор кодека : XVID
Идентификатор кодека/Подсказка : XviD
Продолжительность : 42 м.
Битрейт : 1398 Кбит/сек
Ширина : 720 пикселей
Высота : 400 пикселей
Соотношение сторон : 16:9
Частота кадров : 23,976 (23976/1000) кадра/сек
Цветовое пространство : YUV
Субдискретизация насыщенности : 4:2:0
Битовая глубина : 8 бит
Тип развёртки : Прогрессивная
Метод сжатия : С потерями
Бит/(Пиксели*Кадры) : 0.202
Размер потока : 426 Мбайт (84%)
Библиотека кодирования : XviD 73
Аудио #1
Идентификатор : 1
Формат : MPEG Audio
Версия формата : Version 1
Профиль формата : Layer 3
Режим : Joint stereo
Расширение режима : MS Stereo
Идентификатор кодека : 55
Идентификатор кодека/Подсказка : MP3
Продолжительность : 42 м.
Вид битрейта : Постоянный
Битрейт : 128 Кбит/сек
Каналы : 2 канала
Частота : 48,0 КГц
Метод сжатия : С потерями
Размер потока : 39,0 Мбайт (8%)
Выравнивание : Соединение по промежуткам
Продолжительность промежутка : 42 мс. (1,00 видеокадр)
Время предзагрузки промежутка : 504 мс.
Аудио #2
Идентификатор : 2
Формат : MPEG Audio
Версия формата : Version 1
Профиль формата : Layer 3
Режим : Joint stereo
Расширение режима : MS Stereo
Идентификатор кодека : 55
Идентификатор кодека/Подсказка : MP3
Продолжительность : 42 м.
Вид битрейта : Постоянный
Битрейт : 128 Кбит/сек
Каналы : 2 канала
Частота : 48,0 КГц
Метод сжатия : С потерями
Размер потока : 39,0 Мбайт (8%)
Выравнивание : Соединение по промежуткам
Продолжительность промежутка : 42 мс. (1,00 видеокадр)
Время предзагрузки промежутка : 504 мс.

✘ Скриншоты ✘

✘ Раздача ведется путем добавления новых серий ✘

Когда раздача ведётся путём добавления новых серий, при каждом добавлении создётся новый торрент. Чтобы начать докачку новой серии, пользователям необходимо сделать следующее:
(1) остановить скачивание,
(2) удалить старый торрент у себя из клиента (старые серии удалять не надо),
(3) скачать новый торрент и запустить его у себя в клиенте вместо старого, при этом указать клиенту путь в старую папку, куда и должно происходить скачивание новых серий.
Ваш клиент при этом должен произвести хеширование (проверку) старой папки (если не производит сам - помогите ему сделать это), и будет докачивать только те серии, которых у вас ещё нет. Старые серии при этом не удаляются, а продолжают раздаваться!
Eсли вы уже удалили старые серии, то предотвратить повторную закачку старых серий можно, отжав галочку в соответсвующих местах при запуске нового торрента. По возможности, желательно не удалять старые серии как можно дольше, чтобы релизёр не столько продолжал раздавать старые серии, а смог сконцентрироваться на новых.
-
[cybertorrent.ru].t1550.torrent 
Торрент: Зарегистрирован [ 2019-03-29 17:15 ] · F4EC7664596C8BE0612A649EEB77232A98A82A23

Скачать .torrent

Скачать

24 KB

Статус: проверено
Скачан: 0 раз
Размер: 4,52 GB
terms.php
Показать сообщения:    

Текущее время: 20-Окт 02:03

Часовой пояс: UTC ± 0



Вы не можете начинать темы
Вы не можете отвечать на сообщения
Вы не можете редактировать свои сообщения
Вы не можете удалять свои сообщения
Вы не можете голосовать в опросах
Вы не можете прикреплять файлы к сообщениям
Вы можете скачивать файлы