Статистика раздачи
Размер:  5,01 GB   |    Зарегистрирован:  6 месяцев 18 дней   |    Скачан:  0 раз

Полного источника не было: Никогда

   
 

Гость ®

Пол:
Не указан

Зачарованные / Charmed
Год выпуска: 2018
Страна: США
Жанр: Фэнтези, драма, комедия, детектив
Продолжительность: ~ 00:43:00
Перевод: Профессиональный (двухголосый закадровый)[Gears Media]
Режиссёр: Ванесса Парис, Майкл А. Алловиц, Майкл Ланж
В ролях: Мелони Диас, Мадлен Манток, Сара Джеффери, Руперт Эванс, Эллен Тамаки, Сер’Дариус Блэйн, Чарльз Гиллеспи, Джером Ю, Натали Холл
Описание:
В центре внимания сюжета оказываются три сестры, каждая из которых по-своему интересна. Мэйси - типичная заучка, которая предпочитает проводить время за учебниками, Мел - активная девушка, продвигающая взгляды феминистического характера. Мэдисон - типичная чирлидерша, обожающая тусы и общение. Главные героини проживают в небольшом студенческом городке, в котором буквально кипит жизнь. Вскоре девушки узнают, что являются потомками настоящих ведьм, что говорит лишь о том, что троица - тоже ведьмы. С этого момента их жизнь переворачивается! Они погружаются в мир магии, колдовства и борьбы с монстрами, демонами и прочими существами.
Ссылка на предыдущие и альтернативные раздачи: http://cybertorrent.ru/forum/tracker.php?nm=Charmed
Сэмпл: http://multi-up.com/1212085
Качество: WEBRip
Формат: AVI
Видео: XviD, 720x400 at 23.976 fps, ~1400 kbps avg
Аудио1: Russian, MP3, 48 kHz, 2 ch, 128 kbps
Аудио2: English, MP3, 48 kHz, 2 ch, 128 kbps
Субтитры: нет
Реклама: аудио (два раза, в начале и конце, по 12 сек.)

MediaInfo

Format : AVI
Format/Info : Audio Video Interleave
File size : 502 MiB
Duration : 42 min 34 s
Overall bit rate : 1 648 kb/s
Writing application : Lavf57.29.101
Video
ID : 0
Format : xvid
Codec ID : xvid
Duration : 42 min 34 s
Bit rate : 1 371 kb/s
Width : 720 pixels
Height : 400 pixels
Display aspect ratio : 16:9
Frame rate : 23.976 (24000/1001) FPS
Scan type : Progressive
Bits/(Pixel*Frame) : 0.199
Stream size : 418 MiB (83%)
Audio #1
ID : 1
Format : MPEG Audio
Format version : Version 1
Format profile : Layer 3
Format settings : Joint stereo / MS Stereo
Codec ID : 55
Codec ID/Hint : MP3
Duration : 42 min 34 s
Bit rate mode : Constant
Bit rate : 128 kb/s
Channel(s) : 2 channels
Sampling rate : 48.0 kHz
Compression mode : Lossy
Stream size : 39.0 MiB (8%)
Alignment : Aligned on interleaves
Interleave, duration : 24 ms (0.58 video frame)
Interleave, preload duratio : 24 ms
Title : Gears Media
Writing library : LAME
Audio #2
ID : 2
Format : MPEG Audio
Format version : Version 1
Format profile : Layer 3
Format settings : Joint stereo / MS Stereo
Codec ID : 55
Codec ID/Hint : MP3
Duration : 42 min 34 s
Bit rate mode : Constant
Bit rate : 128 kb/s
Channel(s) : 2 channels
Sampling rate : 48.0 kHz
Compression mode : Lossy
Stream size : 39.0 MiB (8%)
Alignment : Aligned on interleaves
Interleave, duration : 24 ms (0.58 video frame)
Interleave, preload duratio : 24 ms
Writing library : LAME3.99.

Скриншоты

Внимание! Раздача ведётся путём добавления новых серий

Внимание! Раздача ведётся путём добавления новых серий; при каждом добавлении создаётся новый торрент. Чтобы начать докачку новой серии, пользователям необходимо сделать следующее:
(1) остановить скачивание,
(2) удалить старый торрент у себя из клиента (старые серии удалять не надо),
(3) скачать новый торрент и запустить его у себя в клиенте вместо старого, при этом указать клиенту путь в старую папку куда и должно происходить скачивание новых серий.
Ваш клиент при этом должен произвести хеширование (проверку) старой папки (если не производит сам - помогите ему сделать это), и будет докачивать только те серии которых у вас ещё нет. Старые серии при этом не удаляются, а продолжают раздаваться!
Eсли вы уже удалили старые серии, то предотвратить повторную закачку старых серий можно, отжав галочку в соответствующих местах при запуске нового торрента. По возможности, желательно не удалять старые серии как можно дольше чтобы релизёр не столько продолжал раздавать старые серии, а смог сконцентрироваться на новых.
[cybertorrent.ru].t1553.torrent 
Торрент: Зарегистрирован [ 2019-03-29 17:15 ] · A52EB7C69C3F7D2342CFE2A9C01B95FCFED6BAD4

Скачать .torrent

Скачать

26 KB

Статус: проверено
Скачан: 0 раз
Размер: 5,01 GB
terms.php
Показать сообщения:    

Текущее время: 17-Окт 08:24

Часовой пояс: UTC ± 0



Вы не можете начинать темы
Вы не можете отвечать на сообщения
Вы не можете редактировать свои сообщения
Вы не можете удалять свои сообщения
Вы не можете голосовать в опросах
Вы не можете прикреплять файлы к сообщениям
Вы можете скачивать файлы