Статистика раздачи
Размер:  9,13 GB   |    Зарегистрирован:  6 месяцев 23 дня   |    Скачан:  0 раз

Полного источника не было: Никогда

   
 

Гость ®

Пол:
Не указан

Ривердэйл | Riverdale- Год выпуска: 2018
Страна: США
Жанр: Драма, мелодрама, криминал, детектив
Продолжительность: ~ 00:42:00
Перевод: Профессиональный (многоголосый закадровый) Пифагор по заказу "Netflix--Режиссёр: Ли Толанд Кригер, Кевин Родни Салливан, Доун Уилкинсон
В ролях: Кей-Джей Апа, Лили Рейнхарт, Камила Мендес, Коул Спроус, Мэделин Петш, Эшли Мюррэй, Мэдхен Амик, Люк Перри, Марисоль Николс, Росс Батлер, Кейси Котт, Коуди Кирсли, Сара Хабель, Айри Хайлеу, Локлин Манро, Ашанти Бромфилд, Оливия Райан Штерн, Кэйтлин Митчелл-Маркович, Мейджор Курда, Робин Гивенс, Тревор Стайнс, Натали Болтт, Барклей Хоуп, Тиера Сковбай, Колин Лоуренс, Джордан Кэллоуэй, Элвин Сандерс, Том Макбет, Адайн Брэдли, Шеннон Пёрсер, Скит Ульрих, Роб Рако, Рауль Кастильо, Молли Рингуолд и др.-Описание: Сериал расскажет о жизни и приключениях жизнерадостного и никогда не унывающего подростка Арчи Эндрюса, а также Бэтти Купер, Вероники Лодж и их друзей из Ривердейла. Действие разворачивается в современном мире, а главные герои решают исследовать сокрытую от посторонних сторону жизни маленького мирного городка со всеми его странностями и тёмными тайнами, прячущимися за праздничным фасадом.--
Качество: WEBRip
Формат: AVI
Видео: XVID, 720x400, 23.976 fps, ~2000 kbps avg, ~0.29 bit/pixel ( в 11 эпизоде 1780 kbps )
Аудио Rus: AC3, 48.0 KHz, 6 channels, 384 kbps
Субтитры: отсутствуют
Реклама отсутствует
Все раздачи сериала

MediaInfo

General
Complete name : G:\Ривердэйл (Сезон 3) Пифагор\Riverdale.S03E01.WEBRip.RGzsRutracker.Celta88.avi
Format : AVI
Format/Info : Audio Video Interleave
File size : 729 MiB
Duration : 42 min 34 s
Overall bit rate : 2 393 kb/s
Writing application : VirtualDubMod 1.5.10.3 | www.virtualdub-fr.org || (build 2550/release)
Writing library : VirtualDubMod build 2550/release
Video
ID : 0
Format : MPEG-4 Visual
Format profile : Advanced Simple@L5
Format settings, BVOP : 1
Format settings, QPel : No
Format settings, GMC : No warppoints
Format settings, Matrix : Custom
Codec ID : XVID
Codec ID/Hint : XviD
Duration : 42 min 34 s
Bit rate : 2 000 kb/s
Width : 720 pixels
Height : 400 pixels
Display aspect ratio : 16:9
Frame rate : 23.976 (24000/1001) FPS
Color space : YUV
Chroma subsampling : 4:2:0
Bit depth : 8 bits
Scan type : Progressive
Compression mode : Lossy
Bits/(Pixel*Frame) : 0.290
Stream size : 609 MiB (84%)
Writing library : XviD 73
Audio
ID : 1
Format : AC-3
Format/Info : Audio Coding 3
Mode extension : CM (complete main)
Format settings, Endianness : Big
Codec ID : 2000
Duration : 42 min 34 s
Bit rate mode : Constant
Bit rate : 384 kb/s
Channel(s) : 6 channels
Channel positions : Front: L C R, Side: L R, LFE
Sampling rate : 48.0 kHz
Frame rate : 31.250 FPS (1536 spf)
Bit depth : 16 bits
Compression mode : Lossy
Stream size : 117 MiB (16%)
Alignment : Split accross interleaves
Interleave, duration : 42 ms (1.00 video frame)
Interleave, preload duratio : 500 ms

Скриншоты

Внимание! Раздача ведётся путём добавления новых серий!

Внимание! Раздача ведётся путём добавления новых серий; при каждом добавлении создаётся новый торрент.
Чтобы начать докачку новой серии, пользователям необходимо сделать следующее:
1. Остановить скачивание.
2. Удалить старый торрент у себя из клиента (старые серии удалять не надо).
3. Скачать новый торрент и запустить его у себя в клиенте вместо старого, при этом указать клиенту путь в старую папку куда и должно происходить скачивание новых серий.
Ваш клиент при этом должен произвести хеширование (проверку) старой папки (если не производит сам - помогите ему сделать это), и будет докачивать только те серии которых у вас ещё нет. Старые серии при этом не удаляются, а продолжают раздаваться!
Eсли вы уже удалили старые серии, то предотвратить повторную закачку старых серий можно, отжав галочку в соответствующих местах при запуске нового торрента.
Релиз группы:
[cybertorrent.ru].t1554.torrent 
Торрент: Зарегистрирован [ 2019-03-29 17:15 ] · 0DA0342BB85776AA68E012A6F62F039435C43824

Скачать .torrent

Скачать

47 KB

Статус: проверено
Скачан: 0 раз
Размер: 9,13 GB
terms.php
Показать сообщения:    

Текущее время: 22-Окт 08:55

Часовой пояс: UTC ± 0



Вы не можете начинать темы
Вы не можете отвечать на сообщения
Вы не можете редактировать свои сообщения
Вы не можете удалять свои сообщения
Вы не можете голосовать в опросах
Вы не можете прикреплять файлы к сообщениям
Вы можете скачивать файлы