Статистика раздачи
Размер:  746 MB   |    Зарегистрирован:  3 месяца 12 дней   |    Скачан:  0 раз

Полного источника не было: Никогда

 
   
 
 

lopster ®

Пол:
Не указан
Стаж:
3 месяца 12 дней
Сообщений:
612

Дед Мороз. Битва магов
Страна: Россия
Жанр: фэнтези, семейный, приключения
Год выпуска: 2016
Продолжительность: 01:56:25
Субтитры: нет-Режиссер:
Александр Войтинский-В ролях:
Фёдор Бондарчук, Алексей Кравченко, Таисия Вилкова, Никита Волков, Владимир Гостюхин, Егор Бероев, Ксения Алферова, Сергей Бадюк, Ян Цапник, Светлана Пермякова-Описание:
Юную Машу мучают видения летающих огненных монстров. Мама переживает за дочь, одноклассники посмеиваются. Но однажды в самом центре Москвы Маша видит наяву сражение крылатых огненных чудовищ с молодыми людьми, которые называют себя магами. Один из них в последний момент, спасает Машу от нападения химеры. Так Маша попадает в секретную корпорацию, где узнаёт, что Дед Мороз реально существует и, возглавляя армию магов, способных управлять снегом и льдом, охраняет Землю от вторжения темных сил.
А новогодний праздник - это магический ритуал, который каждый год совершают люди на всей планете, даже не подозревая, что участвуют в самой масштабной битве добра и зла. Дед Мороз сообщает Маше, что судьба нашего мира висит на волоске, и от Маши зависит, кто победит - свет или тьма.-Качество видео: WEB-DLRip | DED_MOROZ.BITVA_MAGOV_WEB_DL_1080p-BLUEBIRD
Формат видео: AVI
Видео: 688x288 (2.39:1), 24.000 fps, XviD build 73 ~758 kbps avg, 0.16 bit/pixel
Аудио: 48 kHz, MPEG Layer 3, 2 ch, ~128.00 kbps avg-Сэмпл-

MediaInfo

Код:Format : AVI
Format/Info : Audio Video Interleave
File size : 746 MiB
Duration : 1 h 56 min
Overall bit rate : 896 kb/s
Writing application : VirtualDubMod 1.5.10.3 | www.virtualdub-fr.org || (build 2550/release)
Writing library : VirtualDubMod build 2550/release
Video
ID : 0
Format : MPEG-4 Visual
Format profile : Advanced Simple@L5
Format settings, BVOP : 1
Format settings, QPel : No
Format settings, GMC : No warppoints
Format settings, Matrix : Custom
Codec ID : XVID
Codec ID/Hint : XviD
Duration : 1 h 56 min
Bit rate : 759 kb/s
Width : 688 pixels
Height : 288 pixels
Display aspect ratio : 2.40:1
Frame rate : 24.000 FPS
Color space : YUV
Chroma subsampling : 4:2:0
Bit depth : 8 bits
Scan type : Progressive
Compression mode : Lossy
Bits/(Pixel*Frame) : 0.160
Stream size : 632 MiB (85%)
Writing library : XviD 73
Audio
ID : 1
Format : MPEG Audio
Format version : Version 1
Format profile : Layer 3
Codec ID : 55
Codec ID/Hint : MP3
Duration : 1 h 56 min
Bit rate mode : Constant
Bit rate : 128 kb/s
Channel(s) : 2 channels
Sampling rate : 48.0 kHz
Compression mode : Lossy
Stream size : 107 MiB (14%)
Alignment : Aligned on interleaves
Interleave, duration : 42 ms (1.00 video frame)
Interleave, preload duratio : 504 ms
Writing library : LAME3.99r
Encoding settings : -m s -V 4 -q 2 -lowpass 17 -b 128

Скриншоты

[cybertorrent.ru].t156.torrent 
Торрент: Зарегистрирован [ 2018-02-15 13:57 ] · F26E9265AC139FCAC7FD5551A1EB3DC7E4EE3095

Скачать .torrent

Скачать

15 KB

Статус: проверено
Скачан: 0 раз
Размер: 746 MB
Профиль [ЛС]
Показать сообщения:    

Текущее время: 28-Май 03:00

Часовой пояс: UTC ± 0



Вы не можете начинать темы
Вы не можете отвечать на сообщения
Вы не можете редактировать свои сообщения
Вы не можете удалять свои сообщения
Вы не можете голосовать в опросах
Вы не можете прикреплять файлы к сообщениям
Вы можете скачивать файлы