Статистика раздачи
Нет
 
     
 
 

MAGNAT ®

Пол:
Мужской
Стаж:
2 года 6 месяцев
Сообщений:
11685

Откуда: Москва

Rattlebone - World's Gone Crazy
Жанр: Southern Rock, Blues Rock
Носитель: CD
Страна-производитель диска: RU (Unofficial Release)
Год выпуска диска: 2020
Издатель (лейбл): Chris Anderson & Rattlebone
Номер по каталогу: SJM 001
Страна: USA
Аудио кодек: FLAC
Тип рипа: tracks+.cue
Битрейт аудио: lossless
Продолжительность: 00:55:46
Источник (релизер): Sket4er
Наличие сканов в содержимом раздачи: да
Треклист:
01. Don't Go Down That Road
02. Can't Leave Well Enough Alone
03. World's Gone Crazy
04. What A Man's Made Of
05. Innocent
06. Party In The Street
07. Should Have Seen It Coming
08. Johnny Walker Red
09. Trouble Knows My Name
10. I'll Be Loving You

Лог создания рипа

Exact Audio Copy V1.3 from 2. September 2016
EAC extraction logfile from 5. April 2020, 16:24
Rattlebone / World's Gone Crazy
Used drive : ASUS DRW-24D5MT Adapter: 1 ID: 0
Read mode : Secure
Utilize accurate stream : Yes
Defeat audio cache : Yes
Make use of C2 pointers : No
Read offset correction : 6
Overread into Lead-In and Lead-Out : No
Fill up missing offset samples with silence : Yes
Delete leading and trailing silent blocks : No
Null samples used in CRC calculations : Yes
Used interface : Native Win32 interface for Win NT & 2000
Gap handling : Appended to previous track
Used output format : User Defined Encoder
Selected bitrate : 1024 kBit/s
Quality : High
Add ID3 tag : No
Command line compressor : C:\Program Files (x86)\Exact Audio Copy\Flac\flac.exe
Additional command line options : -V -8 -T "Genre=%genre%" -T "Artist=%artist%" -T "Title=%title%" -T "Album=%albumtitle%" -T "Date=%year%" -T "Tracknumber=%tracknr%" -T "Comment=%comment%" %source%
TOC of the extracted CD
Track | Start | Length | Start sector | End sector
---------------------------------------------------------
1 | 0:00.00 | 4:52.69 | 0 | 21968
2 | 4:52.69 | 4:42.39 | 21969 | 43157
3 | 9:35.33 | 4:42.18 | 43158 | 64325
4 | 14:17.51 | 4:10.70 | 64326 | 83145
5 | 18:28.46 | 8:43.20 | 83146 | 122390
6 | 27:11.66 | 6:36.45 | 122391 | 152135
7 | 33:48.36 | 5:48.52 | 152136 | 178287
8 | 39:37.13 | 4:52.12 | 178288 | 200199
9 | 44:29.25 | 5:46.33 | 200200 | 226182
10 | 50:15.58 | 5:30.16 | 226183 | 250948
Track 1
Filename H:\Sket4er\Rattlebone – World's Gone Crazy 2020\01 Don't Go Down That Road.wav
Pre-gap length 0:00:02.00
Peak level 100.0 %
Extraction speed 1.2 X
Track quality 100.0 %
Test CRC 39956325
Copy CRC 39956325
Accurately ripped (confidence 1) [D150ACEF] (AR v2)
Copy OK
Track 2
Filename H:\Sket4er\Rattlebone – World's Gone Crazy 2020\02 Can't Leave Well Enough Alone.wav
Peak level 100.0 %
Extraction speed 1.2 X
Track quality 99.9 %
Test CRC 2CEC8DE0
Copy CRC 2CEC8DE0
Accurately ripped (confidence 1) [CCAB88F2] (AR v2)
Copy OK
Track 3
Filename H:\Sket4er\Rattlebone – World's Gone Crazy 2020\03 World's Gone Crazy.wav
Peak level 100.0 %
Extraction speed 1.4 X
Track quality 100.0 %
Test CRC 2A606915
Copy CRC 2A606915
Accurately ripped (confidence 1) [560D8B40] (AR v2)
Copy OK
Track 4
Filename H:\Sket4er\Rattlebone – World's Gone Crazy 2020\04 What A Man's Made Of.wav
Peak level 100.0 %
Extraction speed 1.5 X
Track quality 100.0 %
Test CRC 1CB0140E
Copy CRC 1CB0140E
Accurately ripped (confidence 1) [6F60AFED] (AR v2)
Copy OK
Track 5
Filename H:\Sket4er\Rattlebone – World's Gone Crazy 2020\05 Innocent.wav
Peak level 100.0 %
Extraction speed 1.8 X
Track quality 100.0 %
Test CRC A59603DE
Copy CRC A59603DE
Accurately ripped (confidence 1) [048FA4F7] (AR v2)
Copy OK
Track 6
Filename H:\Sket4er\Rattlebone – World's Gone Crazy 2020\06 Party In The Street.wav
Peak level 100.0 %
Extraction speed 1.9 X
Track quality 100.0 %
Test CRC 199C40ED
Copy CRC 199C40ED
Accurately ripped (confidence 1) [DFAD2BA3] (AR v2)
Copy OK
Track 7
Filename H:\Sket4er\Rattlebone – World's Gone Crazy 2020\07 Should Have Seen It Coming.wav
Peak level 100.0 %
Extraction speed 2.0 X
Track quality 100.0 %
Test CRC EB88622B
Copy CRC EB88622B
Accurately ripped (confidence 1) [FA785C14] (AR v2)
Copy OK
Track 8
Filename H:\Sket4er\Rattlebone – World's Gone Crazy 2020\08 Johnny Walker Red.wav
Peak level 100.0 %
Extraction speed 1.8 X
Track quality 99.9 %
Test CRC E50BE13F
Copy CRC E50BE13F
Accurately ripped (confidence 1) [A9F9F043] (AR v2)
Copy OK
Track 9
Filename H:\Sket4er\Rattlebone – World's Gone Crazy 2020\09 Trouble Knows My Name.wav
Peak level 100.0 %
Extraction speed 2.2 X
Track quality 100.0 %
Test CRC 507D783B
Copy CRC 507D783B
Accurately ripped (confidence 1) [433E4B78] (AR v2)
Copy OK
Track 10
Filename H:\Sket4er\Rattlebone – World's Gone Crazy 2020\10 I'll Be Loving You.wav
Peak level 100.0 %
Extraction speed 2.2 X
Track quality 100.0 %
Test CRC 20C96F25
Copy CRC 20C96F25
Cannot be verified as accurate (confidence 1) [2F424342], AccurateRip returned [E951CC76] (AR v2)
Copy OK
9 трек(и) скопированы точно
1 трек(и) не удалось проверить на точность
Some tracks could not be verified as accurate
No errors occurred
End of status report
---- CUETools DB Plugin V2.1.6
[CTDB TOCID: wWrJtgK6wa8Q_jmFP2UB4PgMkiU-] found
Submit result: wWrJtgK6wa8Q_jmFP2UB4PgMkiU- has been confirmed
Track | CTDB Status
1 | (3/3) Accurately ripped
2 | (3/3) Accurately ripped
3 | (3/3) Accurately ripped
4 | (3/3) Accurately ripped
5 | (3/3) Accurately ripped
6 | (3/3) Accurately ripped
7 | (3/3) Accurately ripped
8 | (3/3) Accurately ripped
9 | (3/3) Accurately ripped
10 | (3/3) Accurately ripped
==== Log checksum DEEC59ACB5221D3F004766E0112E3CD8812D8E5BB718DC76CD56D0DF9532CDA7 ====

Содержание индексной карты (.CUE)

REM GENRE "Blues Rock"
REM DATE 2020
REM DISCID 7F0D110A
REM COMMENT "ExactAudioCopy v1.3"
PERFORMER "Rattlebone"
TITLE "World's Gone Crazy"
REM COMPOSER ""
FILE "01 Don't Go Down That Road.wav" WAVE
TRACK 01 AUDIO
TITLE "Don't Go Down That Road"
PERFORMER "Rattlebone"
REM COMPOSER ""
INDEX 01 00:00:00
FILE "02 Can't Leave Well Enough Alone.wav" WAVE
TRACK 02 AUDIO
TITLE "Can't Leave Well Enough Alone"
PERFORMER "Rattlebone"
REM COMPOSER ""
INDEX 01 00:00:00
FILE "03 World's Gone Crazy.wav" WAVE
TRACK 03 AUDIO
TITLE "World's Gone Crazy"
PERFORMER "Rattlebone"
REM COMPOSER ""
INDEX 01 00:00:00
FILE "04 What A Man's Made Of.wav" WAVE
TRACK 04 AUDIO
TITLE "What A Man's Made Of"
PERFORMER "Rattlebone"
REM COMPOSER ""
INDEX 01 00:00:00
FILE "05 Innocent.wav" WAVE
TRACK 05 AUDIO
TITLE "Innocent"
PERFORMER "Rattlebone"
REM COMPOSER ""
INDEX 01 00:00:00
FILE "06 Party In The Street.wav" WAVE
TRACK 06 AUDIO
TITLE "Party In The Street"
PERFORMER "Rattlebone"
REM COMPOSER ""
INDEX 01 00:00:00
FILE "07 Should Have Seen It Coming.wav" WAVE
TRACK 07 AUDIO
TITLE "Should Have Seen It Coming"
PERFORMER "Rattlebone"
REM COMPOSER ""
INDEX 01 00:00:00
FILE "08 Johnny Walker Red.wav" WAVE
TRACK 08 AUDIO
TITLE "Johnny Walker Red"
PERFORMER "Rattlebone"
REM COMPOSER ""
INDEX 01 00:00:00
FILE "09 Trouble Knows My Name.wav" WAVE
TRACK 09 AUDIO
TITLE "Trouble Knows My Name"
PERFORMER "Rattlebone"
REM COMPOSER ""
INDEX 01 00:00:00
FILE "10 I'll Be Loving You.wav" WAVE
TRACK 10 AUDIO
TITLE "I'll Be Loving You"
PERFORMER "Rattlebone"
REM COMPOSER ""
INDEX 01 00:00:00

Лог проверки качества

-----------------------
DON'T MODIFY THIS FILE
-----------------------
PERFORMER: auCDtect Task Manager, ver. 1.5.1RC4 build 1.5.1.5
Copyright (c) 2008-2010 y-soft. All rights reserved
http://y-soft.org
ANALYZER: auCDtect: CD records authenticity detector, version 0.8.2
Copyright (c) 2004 Oleg Berngardt. All rights reserved.
Copyright (c) 2004 Alexander Djourik. All rights reserved.
FILE: 10 I'll Be Loving You.flac
Size: 33434493 Hash: 888EF4507E602A35547EF3031C5BCB24 Accuracy: -m0
Conclusion: MPEG 95%
Signature: FA50566C2E185630982387B0BFD8C002AC51FB53

FILE: 09 Trouble Knows My Name.flac
Size: 39249179 Hash: 8311F72C26E1316B4E2219D7F35C7952 Accuracy: -m0
Conclusion: CDDA 100%
Signature: DE83F013E36A8839333FF96B6222A67F873767CE
FILE: 08 Johnny Walker Red.flac
Size: 27500047 Hash: A156EAC5AC1FB6EBEF6432F705AB31C0 Accuracy: -m0
Conclusion: CDDA 100%
Signature: 07D3B6E7ED850D5D3E436EBE03A13BCF19877D18
FILE: 07 Should Have Seen It Coming.flac
Size: 37458015 Hash: D6EF7C4AAEEF4E3838DD8B480F91033C Accuracy: -m0
Conclusion: CDDA 100%
Signature: B87DE881B7626315D193F92A061D87946E5CF2D7
FILE: 06 Party In The Street.flac
Size: 46108679 Hash: 7EEA1E08A989D15AA401241416E2564C Accuracy: -m0
Conclusion: CDDA 99%
Signature: DE570601F10CF1DBE68678952D815BCDC86420EA
FILE: 05 Innocent.flac
Size: 51892063 Hash: 9BE1018D18354DC699DCD4278D69F927 Accuracy: -m0
Conclusion: MPEG 95%
Signature: E581AE5CDD6970048448288AB220B457311F7744

FILE: 04 What A Man's Made Of.flac
Size: 27676581 Hash: FDAE05DD6FB56871E2FD8A5FAB42AF90 Accuracy: -m0
Conclusion: CDDA 100%
Signature: 9E2A9AE888221D59A279F0933CA1195F4FA52928
FILE: 03 World's Gone Crazy.flac
Size: 32125146 Hash: 7B6A76C1750F39CC3A52D979175E0898 Accuracy: -m0
Conclusion: CDDA 100%
Signature: 12F7DE95B4AD89D167446BAEC915D09F498627A8
FILE: 02 Can't Leave Well Enough Alone.flac
Size: 32509263 Hash: E3238F73ADC893EB3A83FC5542A6BF16 Accuracy: -m0
Conclusion: CDDA 100%
Signature: 04A7BCAD74F32AECFFE0D85B156DE8AD47A1F90B
FILE: 01 Don't Go Down That Road.flac
Size: 34378985 Hash: 4DAF45A53F7699FD70CA2365888D6784 Accuracy: -m0
Conclusion: CDDA 100%
Signature: 25B7FDF9AB343834EACC04344C6D63111C664350

CUETools log

[CUETools log; Date: 06.04.2020 10:19:24; Version: 2.1.6]
[CTDB TOCID: wWrJtgK6wa8Q_jmFP2UB4PgMkiU-] found.
Track | CTDB Status
1 | (4/4) Accurately ripped
2 | (4/4) Accurately ripped
3 | (4/4) Accurately ripped
4 | (4/4) Accurately ripped
5 | (4/4) Accurately ripped
6 | (4/4) Accurately ripped
7 | (4/4) Accurately ripped
8 | (4/4) Accurately ripped
9 | (4/4) Accurately ripped
10 | (4/4) Accurately ripped
[AccurateRip ID: 00147d1a-00a642f6-7f0d110a] found.
Track [ CRC | V2 ] Status
01 [10a92f83|d150acef] (0+1/1) Accurately ripped
02 [ea36e97f|ccab88f2] (0+1/1) Accurately ripped
03 [dfdef5b2|560d8b40] (0+1/1) Accurately ripped
04 [3764a80c|6f60afed] (0+1/1) Accurately ripped
05 [d591dead|048fa4f7] (0+1/1) Accurately ripped
06 [b597537d|dfad2ba3] (0+1/1) Accurately ripped
07 [7c52f2ab|fa785c14] (0+1/1) Accurately ripped
08 [53db6ed2|a9f9f043] (0+1/1) Accurately ripped
09 [0004e214|433e4b78] (0+1/1) Accurately ripped
10 [184f9463|2f424342] (0+0/1) No match
Track Peak [ CRC32 ] [W/O NULL] [ LOG ]
-- 100,0 [E2C05D69] [AF4DE788]
01 100,0 [39956325] [6F43BAE3] CRC32
02 100,0 [2CEC8DE0] [6A92B907] CRC32
03 100,0 [2A606915] [A20EC3E4] CRC32
04 100,0 [1CB0140E] [311A01F1] CRC32
05 100,0 [A59603DE] [690C482B] CRC32
06 100,0 [199C40ED] [B677D131] CRC32
07 100,0 [EB88622B] [15E8F745] CRC32
08 100,0 [E50BE13F] [945D5537] CRC32
09 100,0 [507D783B] [4EEED7B9] CRC32
10 100,0 [20C96F25] [F0B9621A] CRC32

Замер динамического диапазона (DR)

foobar2000 1.3.9 / Замер динамического диапазона (DR) 1.1.1
Дата отчёта: 2020-04-06 10:51:24
--------------------------------------------------------------------------------
Анализ: Rattlebone / World's Gone Crazy
--------------------------------------------------------------------------------
DR Пики RMS Продолжительность трека
--------------------------------------------------------------------------------
DR9 0.00 дБ -9.66 дБ 4:53 01-Don't Go Down That Road
DR9 0.00 дБ -9.65 дБ 4:43 02-Can't Leave Well Enough Alone
DR7 0.00 дБ -8.20 дБ 4:42 03-World's Gone Crazy
DR9 0.00 дБ -10.40 дБ 4:11 04-What A Man's Made Of
DR10 0.00 дБ -12.19 дБ 8:43 05-Innocent
DR9 0.00 дБ -10.11 дБ 6:37 06-Party In The Street
DR9 0.00 дБ -10.48 дБ 5:49 07-Should Have Seen It Coming
DR9 0.00 дБ -9.89 дБ 4:52 08-Johnny Walker Red
DR9 0.00 дБ -10.17 дБ 5:46 09-Trouble Knows My Name
DR8 0.00 дБ -10.00 дБ 5:30 10-I'll Be Loving You
--------------------------------------------------------------------------------
Количество треков: 10
Реальные значения DR: DR9
Частота: 44100 Гц
Каналов: 2
Разрядность: 16
Битрейт: 808 кбит/с
Кодек: FLAC
================================================================================
Доп. информация

Состав

Chris Anderson - Guitars, Lead Vocals
Dennis Gulley - Bass
Johnny Neel - Keyboards, Lead Vocals
Daryl Burgess - Drums
Shaun Murphy - Backing Vocals

Об исполнителе

Chris Anderson (guitar/vocals) and Johnny Neel (keyboard/vocals) teamed up to form the band Rattlebone, with Dennis Gulley (bass/vocals) and Daryl Burgess(drums/vocals), bringing you the best blend of Southern Rock and Blues.
A gifted lead guitarist and singer-songwriter, Anderson grew up in Sarasota sharing local stages with Dickey Betts and other members of the Allman Brothers Band before joining Grinderswitch. In the mid-1980s, Anderson became a member of the Outlaws, spending years elating crowds while leading the guitar attack on such classic rock staples as their epic jam “Green Grass and High Tides,” as well as playing in the country music group Blackhawk featuring members of the Outlaws.
RattleBone features another musician with an impressive Southern rock resume, Johnny Neel, the keyboardist and singer who joined the Dickey Betts Band and then Allman Brothers for their highly successful “Seven Turns” comeback album and tour in the early ’90s. Like Anderson, Neel lives in Nashville and the two often do session work for records by other musicians.
https://www.discogs.com/artist/7138163-Rattlebone-3
https://rattlebone.net
Профиль [ЛС]
Показать сообщения:    

Текущее время: 19-Окт 00:24

Часовой пояс: UTC ± 0



Вы не можете начинать темы
Вы не можете отвечать на сообщения
Вы не можете редактировать свои сообщения
Вы не можете удалять свои сообщения
Вы не можете голосовать в опросах
Вы не можете прикреплять файлы к сообщениям
Вы не можете скачивать файлы