Статистика раздачи
Скачал: [ 2 ]
 
     
 
 

MAGNAT ®

Пол:
Мужской
Стаж:
2 года 5 месяцев
Сообщений:
10768

Откуда: Москва

Uriah Heep / Living The Dream (Frontiers Music, FR CD 885)
Жанр: Hard Rock
Носитель: CD
Страна-производитель диска (релиза): Italy
Год издания: 2018
Издатель (лейбл): Frontiers Music
Номер по каталогу: FR CD 885
Страна исполнителя (группы): U.K.
Аудиокодек: FLAC (*.flac)
Тип рипа: image+.cue
Продолжительность: 00:52:29
Источник: rwa12
Наличие сканов в содержимом раздачи: да
Треклист:
01. Grazed By Heaven (4:31)
02. Living The Dream (5:34)
03. Take Away My Soul (6:13)
04. Knocking At My Door (4:58)
05. Rocks In The Road (8:19)
06. Waters Flowin' (4:27)
07. It's All Been Said (6:01)
08. Goodbye To Innocence (3:34)
09. Falling Under Your Spell (3:25)
10. Dreams Of Yesteryear (5:25)

Лог создания рипа

Exact Audio Copy V1.3 from 2. September 2016
EAC extraction logfile from 23. March 2020, 11:12
Uriah Heep / Living The Dream
Used drive : ASUS DRW-24D5MT Adapter: 1 ID: 0
Read mode : Secure
Utilize accurate stream : Yes
Defeat audio cache : Yes
Make use of C2 pointers : No
Read offset correction : 6
Overread into Lead-In and Lead-Out : No
Fill up missing offset samples with silence : Yes
Delete leading and trailing silent blocks : No
Null samples used in CRC calculations : Yes
Used interface : Native Win32 interface for Win NT & 2000
Used output format : User Defined Encoder
Selected bitrate : 128 kBit/s
Quality : High
Add ID3 tag : No
Command line compressor : C:\Program Files (x86)\Exact Audio Copy\FLAC\FLAC.EXE
Additional command line options : -V -8 -T "Date=%year%" -T "Genre=%genre%" %source%
TOC of the extracted CD
Track | Start | Length | Start sector | End sector
---------------------------------------------------------
1 | 0:00.00 | 4:31.36 | 0 | 20360
2 | 4:31.36 | 5:34.25 | 20361 | 45435
3 | 10:05.61 | 6:13.19 | 45436 | 73429
4 | 16:19.05 | 4:58.35 | 73430 | 95814
5 | 21:17.40 | 8:18.64 | 95815 | 133228
6 | 29:36.29 | 4:27.35 | 133229 | 153288
7 | 34:03.64 | 6:01.15 | 153289 | 180378
8 | 40:05.04 | 3:33.41 | 180379 | 196394
9 | 43:38.45 | 3:24.44 | 196395 | 211738
10 | 47:03.14 | 5:25.24 | 211739 | 236137
Range status and errors
Selected range
Filename F:\ЕАС\rwa12\Uriah Heep - Living The Dream.wav
Peak level 98.8 %
Extraction speed 7.0 X
Range quality 100.0 %
Test CRC 39285AB3
Copy CRC 39285AB3
Copy OK
No errors occurred
AccurateRip summary
Track 1 accurately ripped (confidence 33) [9B62342A] (AR v2)
Track 2 accurately ripped (confidence 33) [95DC3710] (AR v2)
Track 3 accurately ripped (confidence 33) [733DEF02] (AR v2)
Track 4 accurately ripped (confidence 33) [A1428D2F] (AR v2)
Track 5 accurately ripped (confidence 33) [418AEEE9] (AR v2)
Track 6 accurately ripped (confidence 33) [AC709D6B] (AR v2)
Track 7 accurately ripped (confidence 33) [AA68B729] (AR v2)
Track 8 accurately ripped (confidence 33) [9CF19519] (AR v2)
Track 9 accurately ripped (confidence 33) [0F7CE7D1] (AR v2)
Track 10 accurately ripped (confidence 33) [7EFF35AB] (AR v2)
All tracks accurately ripped
End of status report
---- CUETools DB Plugin V2.1.6
[CTDB TOCID: N5HLBSXMf0XTYzEMVILH9qBylGU-] found
Submit result: N5HLBSXMf0XTYzEMVILH9qBylGU- has been confirmed
Track | CTDB Status
1 | (136/137) Accurately ripped
2 | (136/137) Accurately ripped
3 | (136/137) Accurately ripped
4 | (136/137) Accurately ripped
5 | (136/137) Accurately ripped
6 | (136/137) Accurately ripped
7 | (136/137) Accurately ripped
8 | (135/137) Accurately ripped
9 | (135/137) Accurately ripped
10 | (134/137) Accurately ripped
==== Log checksum 7DD6209ACDB30C50DEFE65E31DE3CB89B8983CE7DBEFC2DC863744DD74D22C35 ====

Содержание индексной карты (.CUE)

REM GENRE "Hard/Art Rock"
REM DATE 2018
REM DISCID 8A0C4C0A
REM COMMENT "ExactAudioCopy v1.3"
PERFORMER "Uriah Heep"
TITLE "Living The Dream"
REM COMPOSER ""
FILE "Uriah Heep - Living The Dream.flac" WAVE
TRACK 01 AUDIO
TITLE "Grazed By Heaven"
PERFORMER "Uriah Heep"
REM COMPOSER "Dave Rimmel, Jeff Scott Soto"
INDEX 01 00:00:00
TRACK 02 AUDIO
TITLE "Living The Dream"
PERFORMER "Uriah Heep"
REM COMPOSER "Mick Box, Phil Lanzon"
INDEX 01 04:31:36
TRACK 03 AUDIO
TITLE "Take Away My Soul "
PERFORMER "Uriah Heep"
REM COMPOSER "Mick Box, Phil Lanzon"
INDEX 01 10:05:61
TRACK 04 AUDIO
TITLE "Knocking At My Door"
PERFORMER "Uriah Heep"
REM COMPOSER "Mick Box, Phil Lanzon"
INDEX 01 16:19:05
TRACK 05 AUDIO
TITLE "Rocks In The Road"
PERFORMER "Uriah Heep"
REM COMPOSER "Mick Box, Phil Lanzon"
INDEX 01 21:17:40
TRACK 06 AUDIO
TITLE "Waters Flowin' "
PERFORMER "Uriah Heep"
REM COMPOSER "Mick Box, Phil Lanzon"
INDEX 01 29:36:29
TRACK 07 AUDIO
TITLE "It's All Been Said"
PERFORMER "Uriah Heep"
REM COMPOSER "Mick Box, Phil Lanzon"
INDEX 01 34:03:64
TRACK 08 AUDIO
TITLE "Goodbye To Innocence"
PERFORMER "Uriah Heep"
REM COMPOSER "Mick Box, Phil Lanzon, Bernie Shaw"
INDEX 01 40:05:04
TRACK 09 AUDIO
TITLE "Falling Under Your Spell"
PERFORMER "Uriah Heep"
REM COMPOSER "Mick Box, Phil Lanzon"
INDEX 01 43:38:45
TRACK 10 AUDIO
TITLE "Dreams Of Yesteryear"
PERFORMER "Uriah Heep"
REM COMPOSER "Mick Box, Phil Lanzon"
INDEX 01 47:03:14
Доп. информация:

Об альбоме (сборнике)

Британские иконы классического рока Uriah Heep объявили о выходе своего 25-го студийного альбома Living The Dream на лейбле Frontiers. Релиз назначен на 14 сентября 2018 года.
В трек-лист альбом вошло 10 оригинальных песен и 2 бонусных, среди которых и рок- и прог-рок-песни и рок-баллады. Для записи Living The Dream группа привлекла известного канадского продюсера Джея Растона, ранее работавшего с Anthrax, Steel Panther, Stone Sour и Дайаной Росс.
«Работать с Джеем было великолепно! Он полностью понял, что мы хотим сделать в альбоме. А хотели мы альбом, которым будут гордиться и мы сами, и фанаты. И благодаря Джею мы достигли этого», — рассказывает гитарист Мик Бокс.
Вокалист Берни Шоу предупреждает, что в альбоме будет все, что прославило Uriah Heep: страсть, сила, гармония и смысл: «Группа держит марку с первого риффа». Британская рок-группа, образовавшаяся в 1969 году в Лондоне, Англия, и заимствовавшая название у персонажа романа Чарльза Диккенса «Дэвид Копперфильд».
Первый состав группы сформировался, когда продюсер Джерри Брон пригласил клавишника Кена Хенсли присоединиться к участникам Spice; всемирную известность группе принесли в 1971-1973 годах альбомы Look at Yourself, Demons and Wizards и The Magician's Birthday, считающиеся классикой хард-рока.
Рецензии:
https://www.soyuz.ru/articles/1458
http://inrock.ru/reviews/uriah_heep_2018
На рутрекере:
http://rustorka.me/tracker.php?nm=Uriah%20Heep%20-%...%20Dream%20(2018)

Состав

Bernie Shaw - lead vocals
Mick Box - guitars, vocals
Phil Lanzon - keyboards, vocals
Dave Rimmer - bass guitar, vocals
Russel Gilbrook - drums, percussion
Профиль [ЛС]
Показать сообщения:    

Текущее время: 16-Сен 10:07

Часовой пояс: UTC ± 0



Вы не можете начинать темы
Вы не можете отвечать на сообщения
Вы не можете редактировать свои сообщения
Вы не можете удалять свои сообщения
Вы не можете голосовать в опросах
Вы не можете прикреплять файлы к сообщениям
Вы не можете скачивать файлы