Статистика раздачи
Нет
 
     
 
 

MAGNAT ®

Пол:
Мужской
Стаж:
2 года 6 месяцев
Сообщений:
11685

Откуда: Москва

The Complete Sun Singles, Vol. 5 - From The Vaults
Жанр: Rockabilly, Rock & Roll
Носитель: CD
Страна-производитель диска (релиза): Germany
Год издания: 1997
Издатель (лейбл): Bear Family Records
Номер по каталогу: BCD 15 805 DI
Аудиокодек: FLAC (*.flac)
Тип рипа: tracks+.cue
Продолжительность: 00
Источник: israbox
Наличие сканов в содержимом раздачи: нет
Треклист:

CD1 (01:11:07)

1. Tony Rossini & The Chippers – You Make It Sound So Easy (02:17)
2. Tony Rossini & The Chippers – New Girl In Town (02:49)
3. The Four Upsetters – Midnight Soiree (02:32)
4. The Four Upsetters – Crazy Arms (02:12)
5. Jerry Lee Lewis – Good Golly, Miss Molly (02:19)
6. Jerry Lee Lewis – I Can't Trust Me (In Your Arms, Anymore) (02:16)
7. Jerry Lee Lewis & Linda Gail Lewis – Seasons Of My Heart (03:01)
8. Jerry Lee Lewis – Teenage Letter (02:22)
9. Linda Gail Lewis – Nothin' Shakin' (But The Leaves On The Trees) (02:02)
10. Linda Gail Lewis – Sittin' And Thinkin' (02:48)
11. The Four Upsetters – Surfin' Calliope (03:08)
12. The Four Upsetters – Wabash Cannon Ball (02:05)
13. Tony Rossini – Moved To Kansas City (02:03)
14. Tony Rossini – Nobody (02:25)
15. The Teenangels – Ain't Gonna Let You (02:25)
16. The Teenangels – Tell Me My Love (02:52)
17. Billy Adams – Betty And Dupree (02:41)
18. Billy Adams – Got My Mojo Workin' (02:27)
19. Bill Yates & T-Birds – Don't Step On My Dog (02:15)
20. Bill Yates & T-Birds – Stop, Wait And Listen (02:45)
21. Billy Adams – Lookin' For My Mary Ann (02:35)
22. Billy Adams & Jesse Carter – Trouble In Mind (02:40)
23. Johnny Cash And The Tennessee Three – Wide Open Road (02:40)
24. Johnny Cash And The Tennessee Three – Belshazah (02:27)
25. Smokey Joe – Signifying Monkey (03:20)
26. Smokey Joe – Listen To Me, Baby (02:31)
27. Billy Adams – Reconsider, Baby (02:53)
28. Billy Adams – Ruby Jane (02:17)

Лог создания рипа

Exact Audio Copy V0.99 prebeta 5 from 4. May 2009
EAC extraction logfile from 27. December 2009, 0:55
Various / The Complete Sun Singles - Volume 5 - Disc 1
Used drive : TSSTcorpCDDVDW SH-S223F Adapter: 3 ID: 0
Read mode : Secure
Utilize accurate stream : Yes
Defeat audio cache : Yes
Make use of C2 pointers : No
Read offset correction : 6
Overread into Lead-In and Lead-Out : No
Fill up missing offset samples with silence : Yes
Delete leading and trailing silent blocks : No
Null samples used in CRC calculations : Yes
Used interface : Native Win32 interface for Win NT & 2000
Gap handling : Appended to previous track
Used output format : User Defined Encoder
Selected bitrate : 192 kBit/s
Quality : High
Add ID3 tag : No
Command line compressor : C:\Program Files\Exact Audio Copy\Flac\flac.exe
Additional command line options : -V -8 -T "artist=%a" -T "title=%t" -T "album=%g" -T "date=%y" -T "tracknumber=%n" -T "genre=%m" %s
TOC of the extracted CD
Track | Start | Length | Start sector | End sector
---------------------------------------------------------
1 | 0:00.00 | 2:17.15 | 0 | 10289
2 | 2:17.15 | 2:49.00 | 10290 | 22964
3 | 5:06.15 | 2:31.67 | 22965 | 34356
4 | 7:38.07 | 2:12.10 | 34357 | 44266
5 | 9:50.17 | 2:19.30 | 44267 | 54721
6 | 12:09.47 | 2:15.53 | 54722 | 64899
7 | 14:25.25 | 3:01.05 | 64900 | 78479
8 | 17:26.30 | 2:22.22 | 78480 | 89151
9 | 19:48.52 | 2:01.55 | 89152 | 98281
10 | 21:50.32 | 2:48.18 | 98282 | 110899
11 | 24:38.50 | 3:07.62 | 110900 | 124986
12 | 27:46.37 | 2:04.68 | 124987 | 134354
13 | 29:51.30 | 2:03.32 | 134355 | 143611
14 | 31:54.62 | 2:24.65 | 143612 | 154476
15 | 34:19.52 | 2:34.58 | 154477 | 166084
16 | 36:54.35 | 2:52.02 | 166085 | 178986
17 | 39:46.37 | 2:40.73 | 178987 | 191059
18 | 42:27.35 | 2:27.37 | 191060 | 202121
19 | 44:54.72 | 2:15.33 | 202122 | 212279
20 | 47:10.30 | 2:45.17 | 212280 | 224671
21 | 49:55.47 | 2:35.20 | 224672 | 236316
22 | 52:30.67 | 2:40.18 | 236317 | 248334
23 | 55:11.10 | 2:40.02 | 248335 | 260336
24 | 57:51.12 | 2:26.63 | 260337 | 271349
25 | 60:18.00 | 3:20.02 | 271350 | 286351
26 | 63:38.02 | 2:31.28 | 286352 | 297704
27 | 66:09.30 | 2:53.20 | 297705 | 310699
28 | 69:02.50 | 2:17.12 | 310700 | 320986
Track 1
Filename Z:\EAC\Various - 1997 - The Complete Sun Singles - Volume 5 - Disc 1 [FLAC]\01 - You Make It Sound So Easy.wav
Pre-gap length 0:00:02.00
Peak level 80.7 %
Track quality 100.0 %
Test CRC 4D2269EF
Copy CRC 4D2269EF
Track not present in AccurateRip database
Copy OK
Track 2
Filename Z:\EAC\Various - 1997 - The Complete Sun Singles - Volume 5 - Disc 1 [FLAC]\02 - New Girl In Town.wav
Pre-gap length 0:00:03.00
Peak level 85.9 %
Track quality 99.9 %
Test CRC 92F602E1
Copy CRC 92F602E1
Track not present in AccurateRip database
Copy OK
Track 3
Filename Z:\EAC\Various - 1997 - The Complete Sun Singles - Volume 5 - Disc 1 [FLAC]\03 - Midnight Soiree.wav
Pre-gap length 0:00:03.02
Peak level 96.4 %
Track quality 100.0 %
Test CRC 3769ED56
Copy CRC 3769ED56
Track not present in AccurateRip database
Copy OK
Track 4
Filename Z:\EAC\Various - 1997 - The Complete Sun Singles - Volume 5 - Disc 1 [FLAC]\04 - Crazy Arms.wav
Pre-gap length 0:00:02.96
Peak level 82.1 %
Track quality 100.0 %
Test CRC 0B288E2D
Copy CRC 0B288E2D
Track not present in AccurateRip database
Copy OK
Track 5
Filename Z:\EAC\Various - 1997 - The Complete Sun Singles - Volume 5 - Disc 1 [FLAC]\05 - Good Golly Miss Molly.wav
Pre-gap length 0:00:03.72
Peak level 85.3 %
Track quality 100.0 %
Test CRC 3A129233
Copy CRC 3A129233
Track not present in AccurateRip database
Copy OK
Track 6
Filename Z:\EAC\Various - 1997 - The Complete Sun Singles - Volume 5 - Disc 1 [FLAC]\06 - I Cant Trust Me (in your arms anymore).wav
Pre-gap length 0:00:02.16
Peak level 82.6 %
Track quality 100.0 %
Test CRC F24E32D8
Copy CRC F24E32D8
Track not present in AccurateRip database
Copy OK
Track 7
Filename Z:\EAC\Various - 1997 - The Complete Sun Singles - Volume 5 - Disc 1 [FLAC]\07 - Seasons of my Heart.wav
Pre-gap length 0:00:03.93
Peak level 86.7 %
Track quality 100.0 %
Test CRC 4D98CFF4
Copy CRC 4D98CFF4
Track not present in AccurateRip database
Copy OK
Track 8
Filename Z:\EAC\Various - 1997 - The Complete Sun Singles - Volume 5 - Disc 1 [FLAC]\08 - Teenage Letter.wav
Pre-gap length 0:00:02.73
Peak level 84.7 %
Track quality 100.0 %
Test CRC 8DA0F860
Copy CRC 8DA0F860
Track not present in AccurateRip database
Copy OK
Track 9
Filename Z:\EAC\Various - 1997 - The Complete Sun Singles - Volume 5 - Disc 1 [FLAC]\09 - Nothin' Shakin' (but the leaves).wav
Pre-gap length 0:00:02.49
Peak level 84.2 %
Track quality 100.0 %
Test CRC 19AB5EB6
Copy CRC 19AB5EB6
Track not present in AccurateRip database
Copy OK
Track 10
Filename Z:\EAC\Various - 1997 - The Complete Sun Singles - Volume 5 - Disc 1 [FLAC]\10 - Sittin' & Thinkin'.wav
Pre-gap length 0:00:02.82
Peak level 82.6 %
Track quality 100.0 %
Test CRC EA84387D
Copy CRC EA84387D
Track not present in AccurateRip database
Copy OK
Track 11
Filename Z:\EAC\Various - 1997 - The Complete Sun Singles - Volume 5 - Disc 1 [FLAC]\11 - Surfin' Calliope.wav
Pre-gap length 0:00:04.09
Peak level 71.0 %
Track quality 100.0 %
Test CRC 60B564AD
Copy CRC 60B564AD
Track not present in AccurateRip database
Copy OK
Track 12
Filename Z:\EAC\Various - 1997 - The Complete Sun Singles - Volume 5 - Disc 1 [FLAC]\12 - Wabash Cannon Ball.wav
Pre-gap length 0:00:02.98
Peak level 83.7 %
Track quality 100.0 %
Test CRC AA26B5E8
Copy CRC AA26B5E8
Track not present in AccurateRip database
Copy OK
Track 13
Filename Z:\EAC\Various - 1997 - The Complete Sun Singles - Volume 5 - Disc 1 [FLAC]\13 - Moved To Kansas City.wav
Pre-gap length 0:00:03.86
Peak level 85.0 %
Track quality 100.0 %
Test CRC B5A67F7D
Copy CRC B5A67F7D
Track not present in AccurateRip database
Copy OK
Track 14
Filename Z:\EAC\Various - 1997 - The Complete Sun Singles - Volume 5 - Disc 1 [FLAC]\14 - Nobody.wav
Pre-gap length 0:00:02.32
Peak level 82.9 %
Track quality 100.0 %
Test CRC 78D86F08
Copy CRC 78D86F08
Track not present in AccurateRip database
Copy OK
Track 15
Filename Z:\EAC\Various - 1997 - The Complete Sun Singles - Volume 5 - Disc 1 [FLAC]\15 - Aint Gonna Let You (break my heart).wav
Pre-gap length 0:00:02.05
Peak level 74.9 %
Track quality 100.0 %
Test CRC 3785D5E0
Copy CRC 3785D5E0
Track not present in AccurateRip database
Copy OK
Track 16
Filename Z:\EAC\Various - 1997 - The Complete Sun Singles - Volume 5 - Disc 1 [FLAC]\16 - Tell Me My Love.wav
Pre-gap length 0:00:03.06
Peak level 69.5 %
Track quality 99.9 %
Test CRC 4B546932
Copy CRC 4B546932
Track not present in AccurateRip database
Copy OK
Track 17
Filename Z:\EAC\Various - 1997 - The Complete Sun Singles - Volume 5 - Disc 1 [FLAC]\17 - Betty & Dupree.wav
Pre-gap length 0:00:03.02
Peak level 83.9 %
Track quality 100.0 %
Test CRC 4869AEDC
Copy CRC 4869AEDC
Track not present in AccurateRip database
Copy OK
Track 18
Filename Z:\EAC\Various - 1997 - The Complete Sun Singles - Volume 5 - Disc 1 [FLAC]\18 - Got My Mojo Workin'.wav
Pre-gap length 0:00:02.86
Peak level 82.5 %
Track quality 100.0 %
Test CRC A5EE355E
Copy CRC A5EE355E
Track not present in AccurateRip database
Copy OK
Track 19
Filename Z:\EAC\Various - 1997 - The Complete Sun Singles - Volume 5 - Disc 1 [FLAC]\19 - Dont Step On My Dog.wav
Pre-gap length 0:00:01.62
Peak level 58.6 %
Track quality 100.0 %
Test CRC 30E73C32
Copy CRC 30E73C32
Track not present in AccurateRip database
Copy OK
Track 20
Filename Z:\EAC\Various - 1997 - The Complete Sun Singles - Volume 5 - Disc 1 [FLAC]\20 - Stop, Wait & Listen.wav
Pre-gap length 0:00:03.26
Peak level 68.8 %
Track quality 100.0 %
Test CRC AA39E31D
Copy CRC AA39E31D
Track not present in AccurateRip database
Copy OK
Track 21
Filename Z:\EAC\Various - 1997 - The Complete Sun Singles - Volume 5 - Disc 1 [FLAC]\21 - Lookin' For My Mary Ann.wav
Pre-gap length 0:00:02.98
Peak level 60.5 %
Track quality 100.0 %
Test CRC CD3EA666
Copy CRC CD3EA666
Track not present in AccurateRip database
Copy OK
Track 22
Filename Z:\EAC\Various - 1997 - The Complete Sun Singles - Volume 5 - Disc 1 [FLAC]\22 - Trouble In Mind.wav
Pre-gap length 0:00:02.52
Peak level 86.1 %
Track quality 100.0 %
Test CRC 4C1966AE
Copy CRC 4C1966AE
Track not present in AccurateRip database
Copy OK
Track 23
Filename Z:\EAC\Various - 1997 - The Complete Sun Singles - Volume 5 - Disc 1 [FLAC]\23 - Wide Open Road.wav
Pre-gap length 0:00:04.96
Peak level 83.1 %
Track quality 100.0 %
Test CRC F139C576
Copy CRC F139C576
Track not present in AccurateRip database
Copy OK
Track 24
Filename Z:\EAC\Various - 1997 - The Complete Sun Singles - Volume 5 - Disc 1 [FLAC]\24 - Belshazah.wav
Pre-gap length 0:00:02.89
Peak level 76.0 %
Track quality 100.0 %
Test CRC 6D47F418
Copy CRC 6D47F418
Track not present in AccurateRip database
Copy OK
Track 25
Filename Z:\EAC\Various - 1997 - The Complete Sun Singles - Volume 5 - Disc 1 [FLAC]\25 - Signifying Monkey.wav
Pre-gap length 0:00:02.89
Peak level 83.3 %
Track quality 100.0 %
Test CRC 7017B28A
Copy CRC 7017B28A
Track not present in AccurateRip database
Copy OK
Track 26
Filename Z:\EAC\Various - 1997 - The Complete Sun Singles - Volume 5 - Disc 1 [FLAC]\26 - Listen To Me Baby.wav
Pre-gap length 0:00:02.72
Peak level 61.6 %
Track quality 100.0 %
Test CRC 1BD4F4EC
Copy CRC 1BD4F4EC
Track not present in AccurateRip database
Copy OK
Track 27
Filename Z:\EAC\Various - 1997 - The Complete Sun Singles - Volume 5 - Disc 1 [FLAC]\27 - Reconsider Baby.wav
Pre-gap length 0:00:04.26
Peak level 72.7 %
Track quality 100.0 %
Test CRC 7CFF2B79
Copy CRC 7CFF2B79
Track not present in AccurateRip database
Copy OK
Track 28
Filename Z:\EAC\Various - 1997 - The Complete Sun Singles - Volume 5 - Disc 1 [FLAC]\28 - Ruby Jane.wav
Pre-gap length 0:00:03.16
Peak level 76.0 %
Track quality 99.9 %
Test CRC ED20AAD8
Copy CRC ED20AAD8
Track not present in AccurateRip database
Copy OK
None of the tracks are present in the AccurateRip database
No errors occurred
End of status report

Содержание индексной карты (.CUE)

REM GENRE "Rock & Roll"
REM DATE 1997
REM DISCID 9810B71C
REM COMMENT "ExactAudioCopy v0.99pb5"
PERFORMER "Various"
TITLE "The Complete Sun Singles - Volume 5 - Disc 1"
FILE "01 - Tony Rossini & The Chippers - You Make It Sound So Easy.wav" WAVE
TRACK 01 AUDIO
TITLE "You Make It Sound So Easy"
PERFORMER "Tony Rossini & The Chippers"
INDEX 01 00:00:00
TRACK 02 AUDIO
TITLE "New Girl In Town"
PERFORMER "Tony Rossini & The The Chippers"
INDEX 00 02:14:15
FILE "02 - Tony Rossini & The The Chippers - New Girl In Town.wav" WAVE
INDEX 01 00:00:00
TRACK 03 AUDIO
TITLE "Midnight Soiree"
PERFORMER "The Four Upsetters"
INDEX 00 02:45:73
FILE "03 - The Four Upsetters - Midnight Soiree.wav" WAVE
INDEX 01 00:00:00
TRACK 04 AUDIO
TITLE "Crazy Arms"
PERFORMER "The Four Upsetters"
INDEX 00 02:28:70
FILE "04 - The Four Upsetters - Crazy Arms.wav" WAVE
INDEX 01 00:00:00
TRACK 05 AUDIO
TITLE "Good Golly Miss Molly"
PERFORMER "Jerry Lee Lewis"
INDEX 00 02:08:31
FILE "05 - Jerry Lee Lewis - Good Golly Miss Molly.wav" WAVE
INDEX 01 00:00:00
TRACK 06 AUDIO
TITLE "I Cant Trust Me (in your arms anymore) "
PERFORMER "Jerry Lee Lewis"
INDEX 00 02:17:18
FILE "06 - Jerry Lee Lewis - I Cant Trust Me (in your arms anymore).wav" WAVE
INDEX 01 00:00:00
TRACK 07 AUDIO
TITLE "Seasons of my Heart"
PERFORMER "Jerry Lee Lewis with Linda Gail Lewis"
INDEX 00 02:11:58
FILE "07 - Jerry Lee Lewis with Linda Gail Lewis - Seasons of my Heart.wav" WAVE
INDEX 01 00:00:00
TRACK 08 AUDIO
TITLE "Teenage Letter"
PERFORMER "Jerry Lee Lewis"
INDEX 00 02:58:25
FILE "08 - Jerry Lee Lewis - Teenage Letter.wav" WAVE
INDEX 01 00:00:00
TRACK 09 AUDIO
TITLE "Nothin' Shakin' (but the leaves)"
PERFORMER "Linda Gail Lewis"
INDEX 00 02:19:60
FILE "09 - Linda Gail Lewis - Nothin' Shakin' (but the leaves).wav" WAVE
INDEX 01 00:00:00
TRACK 10 AUDIO
TITLE "Sittin' & Thinkin'"
PERFORMER "Linda Gail Lewis"
INDEX 00 01:58:68
FILE "10 - Linda Gail Lewis - Sittin' & Thinkin'.wav" WAVE
INDEX 01 00:00:00
TRACK 11 AUDIO
TITLE "Surfin' Calliope"
PERFORMER "The Four Upsetters"
INDEX 00 02:44:11
FILE "11 - The Four Upsetters - Surfin' Calliope.wav" WAVE
INDEX 01 00:00:00
TRACK 12 AUDIO
TITLE "Wabash Cannon Ball"
PERFORMER "The Four Upsetters"
INDEX 00 03:04:63
FILE "12 - The Four Upsetters - Wabash Cannon Ball.wav" WAVE
INDEX 01 00:00:00
TRACK 13 AUDIO
TITLE "Moved To Kansas City"
PERFORMER "Tony Rossini"
INDEX 00 02:01:03
FILE "13 - Tony Rossini - Moved To Kansas City.wav" WAVE
INDEX 01 00:00:00
TRACK 14 AUDIO
TITLE "Nobody"
PERFORMER "Tony Rossini"
INDEX 00 02:01:08
FILE "14 - Tony Rossini - Nobody.wav" WAVE
INDEX 01 00:00:00
TRACK 15 AUDIO
TITLE "Aint Gonna Let You (break my heart)"
PERFORMER "The Teenangels"
INDEX 00 02:22:61
FILE "15 - The Teenangels - Aint Gonna Let You (break my heart).wav" WAVE
INDEX 01 00:00:00
TRACK 16 AUDIO
TITLE "Tell Me My Love"
PERFORMER "The Teenangels"
INDEX 00 02:31:53
FILE "16 - The Teenangels - Tell Me My Love.wav" WAVE
INDEX 01 00:00:00
TRACK 17 AUDIO
TITLE "Betty & Dupree"
PERFORMER "Billy Adams"
INDEX 00 02:49:00
FILE "17 - Billy Adams - Betty & Dupree.wav" WAVE
INDEX 01 00:00:00
TRACK 18 AUDIO
TITLE "Got My Mojo Workin'"
PERFORMER "Billy Adams"
INDEX 00 02:38:08
FILE "18 - Billy Adams - Got My Mojo Workin'.wav" WAVE
INDEX 01 00:00:00
TRACK 19 AUDIO
TITLE "Dont Step On My Dog"
PERFORMER "Bill Yates & His T-Birds"
INDEX 00 02:25:65
FILE "19 - Bill Yates & His T-Birds - Dont Step On My Dog.wav" WAVE
INDEX 01 00:00:00
TRACK 20 AUDIO
TITLE "Stop, Wait & Listen"
PERFORMER "Bill Yates & His T-Birds"
INDEX 00 02:12:13
FILE "20 - Bill Yates & His T-Birds - Stop, Wait & Listen.wav" WAVE
INDEX 01 00:00:00
TRACK 21 AUDIO
TITLE "Lookin' For My Mary Ann"
PERFORMER "Billy Adams"
INDEX 00 02:42:18
FILE "21 - Billy Adams - Lookin' For My Mary Ann.wav" WAVE
INDEX 01 00:00:00
TRACK 22 AUDIO
TITLE "Trouble In Mind"
PERFORMER "Billy Adams & Jessie Carter"
INDEX 00 02:32:56
FILE "22 - Billy Adams & Jessie Carter - Trouble In Mind.wav" WAVE
INDEX 01 00:00:00
TRACK 23 AUDIO
TITLE "Wide Open Road"
PERFORMER "Johnny Cash & The Tennessee Three"
INDEX 00 02:35:21
FILE "23 - Johnny Cash & The Tennessee Three - Wide Open Road.wav" WAVE
INDEX 01 00:00:00
TRACK 24 AUDIO
TITLE "Belshazah"
PERFORMER "Johnny Cash & The Tennessee Three"
INDEX 00 02:37:10
FILE "24 - Johnny Cash & The Tennessee Three - Belshazah.wav" WAVE
INDEX 01 00:00:00
TRACK 25 AUDIO
TITLE "Signifying Monkey"
PERFORMER "Smokey Joe"
INDEX 00 02:23:71
FILE "25 - Smokey Joe - Signifying Monkey.wav" WAVE
INDEX 01 00:00:00
TRACK 26 AUDIO
TITLE "Listen To Me Baby"
PERFORMER "Smokey Joe"
INDEX 00 03:17:23
FILE "26 - Smokey Joe - Listen To Me Baby.wav" WAVE
INDEX 01 00:00:00
TRACK 27 AUDIO
TITLE "Reconsider Baby"
PERFORMER "Billy Adams"
INDEX 00 02:27:08
FILE "27 - Billy Adams - Reconsider Baby.wav" WAVE
INDEX 01 00:00:00
TRACK 28 AUDIO
TITLE "Ruby Jane"
PERFORMER "Billy Adams"
INDEX 00 02:50:08
FILE "28 - Billy Adams - Ruby Jane.wav" WAVE
INDEX 01 00:00:00

CD2 (01:04:48)

1. Randy & The Radiants – Mountain's High (02:39)
2. Randy & The Radiants – Peek-A-Boo (02:13)
3. Jerry Lee Lewis – Carry Me Back To Old Virginia (02:23)
4. Jerry Lee Lewis – I Know What It Means (02:42)
5. Gorgeous Bill – Too Late To Right My Wrong (02:43)
6. Gorgeous Bill – Carleen (02:50)
7. Randy & The Radiants – My Way Of Thinking (02:34)
8. Randy & The Radiants – Truth From My Eyes (02:21)
9. Bill Yates – Big Big World (03:11)
10. Bill Yates – I Dropped My M & M's (02:13)
11. The Jesters – My Babe (02:17)
12. The Jesters – Cadillac Man (02:20)
13. Billy Adams – Open The Door, Richard (02:32)
14. Billy Adams – Rock Me, Baby (02:47)
15. Dane Stinit – Don't Knock What You Don't Understand (02:19)
16. Dane Stinit – Always On The Go (01:53)
17. David Houston – Sherry's Lips (02:21)
18. David Houston – Miss Brown (02:37)
19. The Climates – No You For Me (02:25)
20. The Climates – Breaking Up Again (02:44)
21. Dane Stinit – Sweet Country Girl (02:14)
22. Dane Stinit – That Muddy Ole River (Near Memphis, Tennessee) (02:01)
23. Brother James Anderson – I'm Gonna Move In The Room With The Lord (02:40)
24. Brother James Anderson – My Soul Needs Resting (02:25)
25. Load Of Mischief – I'm A Lover (02:38)
26. Load Of Mischief – Back In My Arms, Again (02:46)

Лог создания рипа

Exact Audio Copy V0.99 prebeta 5 from 4. May 2009
EAC extraction logfile from 27. December 2009, 8:42
Various / The Complete Sun Singles - Volume 5 - Disc 2
Used drive : TSSTcorpCDDVDW SH-S223F Adapter: 3 ID: 0
Read mode : Secure
Utilize accurate stream : Yes
Defeat audio cache : Yes
Make use of C2 pointers : No
Read offset correction : 6
Overread into Lead-In and Lead-Out : No
Fill up missing offset samples with silence : Yes
Delete leading and trailing silent blocks : No
Null samples used in CRC calculations : Yes
Used interface : Native Win32 interface for Win NT & 2000
Gap handling : Appended to previous track
Used output format : User Defined Encoder
Selected bitrate : 192 kBit/s
Quality : High
Add ID3 tag : No
Command line compressor : C:\Program Files\Exact Audio Copy\Flac\flac.exe
Additional command line options : -V -8 -T "artist=%a" -T "title=%t" -T "album=%g" -T "date=%y" -T "tracknumber=%n" -T "genre=%m" %s
TOC of the extracted CD
Track | Start | Length | Start sector | End sector
---------------------------------------------------------
1 | 0:00.00 | 2:38.52 | 0 | 11901
2 | 2:38.52 | 2:13.03 | 11902 | 21879
3 | 4:51.55 | 2:22.67 | 21880 | 32596
4 | 7:14.47 | 2:42.05 | 32597 | 44751
5 | 9:56.52 | 2:42.45 | 44752 | 56946
6 | 12:39.22 | 2:49.48 | 56947 | 69669
7 | 15:28.70 | 2:33.67 | 69670 | 81211
8 | 18:02.62 | 2:21.28 | 81212 | 91814
9 | 20:24.15 | 3:11.35 | 91815 | 106174
10 | 23:35.50 | 2:13.37 | 106175 | 116186
11 | 25:49.12 | 2:17.25 | 116187 | 126486
12 | 28:06.37 | 2:19.50 | 126487 | 136961
13 | 30:26.12 | 2:32.20 | 136962 | 148381
14 | 32:58.32 | 2:47.25 | 148382 | 160931
15 | 35:45.57 | 2:19.18 | 160932 | 171374
16 | 38:05.00 | 1:53.05 | 171375 | 179854
17 | 39:58.05 | 2:20.57 | 179855 | 190411
18 | 42:18.62 | 2:36.48 | 190412 | 202159
19 | 44:55.35 | 2:25.32 | 202160 | 213066
20 | 47:20.67 | 2:43.50 | 213067 | 225341
21 | 50:04.42 | 2:13.50 | 225342 | 235366
22 | 52:18.17 | 2:00.63 | 235367 | 244429
23 | 54:19.05 | 2:40.30 | 244430 | 256459
24 | 56:59.35 | 2:25.10 | 256460 | 267344
25 | 59:24.45 | 2:37.62 | 267345 | 279181
26 | 62:02.32 | 2:46.25 | 279182 | 291656
Track 1
Filename Z:\EAC\Various - 1997 - The Complete Sun Singles - Volume 5 - Disc 2 [FLAC]\01 - Mountain's High.wav
Pre-gap length 0:00:02.00
Peak level 90.6 %
Track quality 100.0 %
Test CRC 66D75AED
Copy CRC 66D75AED
Track not present in AccurateRip database
Copy OK
Track 2
Filename Z:\EAC\Various - 1997 - The Complete Sun Singles - Volume 5 - Disc 2 [FLAC]\02 - Peek A Boo.wav
Pre-gap length 0:00:01.89
Peak level 90.8 %
Track quality 100.0 %
Test CRC C1295946
Copy CRC C1295946
Track not present in AccurateRip database
Copy OK
Track 3
Filename Z:\EAC\Various - 1997 - The Complete Sun Singles - Volume 5 - Disc 2 [FLAC]\03 - Carry Me Back To Old Virginia.wav
Pre-gap length 0:00:03.60
Peak level 88.7 %
Track quality 100.0 %
Test CRC F22300FE
Copy CRC F22300FE
Track not present in AccurateRip database
Copy OK
Track 4
Filename Z:\EAC\Various - 1997 - The Complete Sun Singles - Volume 5 - Disc 2 [FLAC]\04 - I Know What It Means.wav
Pre-gap length 0:00:03.60
Peak level 98.8 %
Track quality 100.0 %
Test CRC 9F6E1EB9
Copy CRC 9F6E1EB9
Track not present in AccurateRip database
Copy OK
Track 5
Filename Z:\EAC\Various - 1997 - The Complete Sun Singles - Volume 5 - Disc 2 [FLAC]\05 - Too Late Too Right My Wrong.wav
Pre-gap length 0:00:03.53
Peak level 68.1 %
Track quality 100.0 %
Test CRC AB150C90
Copy CRC AB150C90
Track not present in AccurateRip database
Copy OK
Track 6
Filename Z:\EAC\Various - 1997 - The Complete Sun Singles - Volume 5 - Disc 2 [FLAC]\06 - Carleen.wav
Pre-gap length 0:00:02.46
Peak level 83.7 %
Track quality 100.0 %
Test CRC DC2EF979
Copy CRC DC2EF979
Track not present in AccurateRip database
Copy OK
Track 7
Filename Z:\EAC\Various - 1997 - The Complete Sun Singles - Volume 5 - Disc 2 [FLAC]\07 - My Way Of Thinking.wav
Pre-gap length 0:00:03.97
Peak level 77.0 %
Track quality 100.0 %
Test CRC 9A772846
Copy CRC 9A772846
Track not present in AccurateRip database
Copy OK
Track 8
Filename Z:\EAC\Various - 1997 - The Complete Sun Singles - Volume 5 - Disc 2 [FLAC]\08 - Truth From My Eyes.wav
Pre-gap length 0:00:02.56
Peak level 74.6 %
Track quality 100.0 %
Test CRC 000C3C27
Copy CRC 000C3C27
Track not present in AccurateRip database
Copy OK
Track 9
Filename Z:\EAC\Various - 1997 - The Complete Sun Singles - Volume 5 - Disc 2 [FLAC]\09 - Big Big World.wav
Pre-gap length 0:00:03.00
Peak level 77.3 %
Track quality 100.0 %
Test CRC B0A470D8
Copy CRC B0A470D8
Track not present in AccurateRip database
Copy OK
Track 10
Filename Z:\EAC\Various - 1997 - The Complete Sun Singles - Volume 5 - Disc 2 [FLAC]\10 - I Dropped My M & M's.wav
Pre-gap length 0:00:02.80
Peak level 67.5 %
Track quality 99.9 %
Test CRC 8F5F6617
Copy CRC 8F5F6617
Track not present in AccurateRip database
Copy OK
Track 11
Filename Z:\EAC\Various - 1997 - The Complete Sun Singles - Volume 5 - Disc 2 [FLAC]\11 - My Babe.wav
Pre-gap length 0:00:03.60
Peak level 67.6 %
Track quality 100.0 %
Test CRC 46547AA4
Copy CRC 46547AA4
Track not present in AccurateRip database
Copy OK
Track 12
Filename Z:\EAC\Various - 1997 - The Complete Sun Singles - Volume 5 - Disc 2 [FLAC]\12 - Cadillac Man.wav
Pre-gap length 0:00:02.62
Peak level 83.6 %
Track quality 100.0 %
Test CRC 61179B62
Copy CRC 61179B62
Track not present in AccurateRip database
Copy OK
Track 13
Filename Z:\EAC\Various - 1997 - The Complete Sun Singles - Volume 5 - Disc 2 [FLAC]\13 - Open The Door Richard.wav
Pre-gap length 0:00:02.93
Peak level 93.6 %
Track quality 100.0 %
Test CRC 24F74B51
Copy CRC 24F74B51
Track not present in AccurateRip database
Copy OK
Track 14
Filename Z:\EAC\Various - 1997 - The Complete Sun Singles - Volume 5 - Disc 2 [FLAC]\14 - Rock Me Baby.wav
Pre-gap length 0:00:02.02
Peak level 85.2 %
Track quality 100.0 %
Test CRC 30169197
Copy CRC 30169197
Track not present in AccurateRip database
Copy OK
Track 15
Filename Z:\EAC\Various - 1997 - The Complete Sun Singles - Volume 5 - Disc 2 [FLAC]\15 - Don't Knock what You Don't Understand.wav
Pre-gap length 0:00:03.16
Peak level 93.9 %
Track quality 100.0 %
Test CRC 61BD54B4
Copy CRC 61BD54B4
Track not present in AccurateRip database
Copy OK
Track 16
Filename Z:\EAC\Various - 1997 - The Complete Sun Singles - Volume 5 - Disc 2 [FLAC]\16 - Always On the Go.wav
Pre-gap length 0:00:01.73
Peak level 84.1 %
Track quality 100.0 %
Test CRC 6EDDCA74
Copy CRC 6EDDCA74
Track not present in AccurateRip database
Copy OK
Track 17
Filename Z:\EAC\Various - 1997 - The Complete Sun Singles - Volume 5 - Disc 2 [FLAC]\17 - Sherry's Lips.wav
Pre-gap length 0:00:03.70
Peak level 92.8 %
Track quality 99.9 %
Test CRC 9CF143C6
Copy CRC 9CF143C6
Track not present in AccurateRip database
Copy OK
Track 18
Filename Z:\EAC\Various - 1997 - The Complete Sun Singles - Volume 5 - Disc 2 [FLAC]\18 - Miss Brown.wav
Pre-gap length 0:00:02.40
Peak level 87.2 %
Track quality 100.0 %
Test CRC EF281A76
Copy CRC EF281A76
Track not present in AccurateRip database
Copy OK
Track 19
Filename Z:\EAC\Various - 1997 - The Complete Sun Singles - Volume 5 - Disc 2 [FLAC]\19 - No You For Me.wav
Pre-gap length 0:00:03.26
Peak level 90.5 %
Track quality 99.9 %
Test CRC DB71C0BA
Copy CRC DB71C0BA
Track not present in AccurateRip database
Copy OK
Track 20
Filename Z:\EAC\Various - 1997 - The Complete Sun Singles - Volume 5 - Disc 2 [FLAC]\20 - Breaking Up Again.wav
Pre-gap length 0:00:02.06
Peak level 88.7 %
Track quality 100.0 %
Test CRC 2B045CB4
Copy CRC 2B045CB4
Track not present in AccurateRip database
Copy OK
Track 21
Filename Z:\EAC\Various - 1997 - The Complete Sun Singles - Volume 5 - Disc 2 [FLAC]\21 - Sweet Country Girl.wav
Pre-gap length 0:00:03.82
Peak level 88.3 %
Track quality 100.0 %
Test CRC 59460285
Copy CRC 59460285
Track not present in AccurateRip database
Copy OK
Track 22
Filename Z:\EAC\Various - 1997 - The Complete Sun Singles - Volume 5 - Disc 2 [FLAC]\22 - The Muddy Ole River.wav
Pre-gap length 0:00:03.26
Peak level 89.4 %
Track quality 99.9 %
Test CRC 60592715
Copy CRC 60592715
Track not present in AccurateRip database
Copy OK
Track 23
Filename Z:\EAC\Various - 1997 - The Complete Sun Singles - Volume 5 - Disc 2 [FLAC]\23 - I'm Gonna Move In the Room with the Lord.wav
Pre-gap length 0:00:03.30
Peak level 88.7 %
Track quality 99.9 %
Test CRC 6EC15A8C
Copy CRC 6EC15A8C
Track not present in AccurateRip database
Copy OK
Track 24
Filename Z:\EAC\Various - 1997 - The Complete Sun Singles - Volume 5 - Disc 2 [FLAC]\24 - My Soul Needs Resting.wav
Pre-gap length 0:00:02.60
Peak level 88.8 %
Track quality 99.9 %
Test CRC C1029480
Copy CRC C1029480
Track not present in AccurateRip database
Copy OK
Track 25
Filename Z:\EAC\Various - 1997 - The Complete Sun Singles - Volume 5 - Disc 2 [FLAC]\25 - I'm a Lover.wav
Pre-gap length 0:00:03.17
Peak level 67.0 %
Track quality 100.0 %
Test CRC A12A8710
Copy CRC A12A8710
Track not present in AccurateRip database
Copy OK
Track 26
Filename Z:\EAC\Various - 1997 - The Complete Sun Singles - Volume 5 - Disc 2 [FLAC]\26 - Back In My Arms Again.wav
Pre-gap length 0:00:02.66
Peak level 68.3 %
Track quality 100.0 %
Test CRC DB2AB542
Copy CRC DB2AB542
Track not present in AccurateRip database
Copy OK
None of the tracks are present in the AccurateRip database
No errors occurred
End of status report

Содержание индексной карты (.CUE)

REM GENRE "Rock & Roll"
REM DATE 1997
REM DISCID 670F301A
REM COMMENT "ExactAudioCopy v0.99pb5"
PERFORMER "Various"
TITLE "The Complete Sun Singles - Volume 5 - Disc 2"
FILE "01 - Randy & The Radiants - Mountain's High.wav" WAVE
TRACK 01 AUDIO
TITLE "Mountain's High"
PERFORMER "Randy & The Radiants"
INDEX 01 00:00:00
TRACK 02 AUDIO
TITLE "Peek A Boo"
PERFORMER "Randy & The Radiants"
INDEX 00 02:36:60
FILE "02 - Randy & The Radiants - Peek A Boo.wav" WAVE
INDEX 01 00:00:00
TRACK 03 AUDIO
TITLE "Carry Me Back To Old Virginia"
PERFORMER "Jerry Lee Lewis"
INDEX 00 02:09:33
FILE "03 - Jerry Lee Lewis - Carry Me Back To Old Virginia.wav" WAVE
INDEX 01 00:00:00
TRACK 04 AUDIO
TITLE "I Know What It Means"
PERFORMER "Jerry Lee Lewis"
INDEX 00 02:19:22
FILE "04 - Jerry Lee Lewis - I Know What It Means.wav" WAVE
INDEX 01 00:00:00
TRACK 05 AUDIO
TITLE "Too Late Too Right My Wrong"
PERFORMER "Gorgeous Bill"
INDEX 00 02:38:40
FILE "05 - Gorgeous Bill - Too Late Too Right My Wrong.wav" WAVE
INDEX 01 00:00:00
TRACK 06 AUDIO
TITLE "Carleen"
PERFORMER "Gorgeous Bill"
INDEX 00 02:40:10
FILE "06 - Gorgeous Bill - Carleen.wav" WAVE
INDEX 01 00:00:00
TRACK 07 AUDIO
TITLE "My Way Of Thinking"
PERFORMER "Randy & The Radiants"
INDEX 00 02:45:50
FILE "07 - Randy & The Radiants - My Way Of Thinking.wav" WAVE
INDEX 01 00:00:00
TRACK 08 AUDIO
TITLE "Truth From My Eyes"
PERFORMER "Randy & The Radiants"
INDEX 00 02:31:25
FILE "08 - Randy & The Radiants - Truth From My Eyes.wav" WAVE
INDEX 01 00:00:00
TRACK 09 AUDIO
TITLE "Big Big World"
PERFORMER "Bill Yates"
INDEX 00 02:18:28
FILE "09 - Bill Yates - Big Big World.wav" WAVE
INDEX 01 00:00:00
TRACK 10 AUDIO
TITLE "I Dropped My M & M's"
PERFORMER "Bill Yates"
INDEX 00 03:08:50
FILE "10 - Bill Yates - I Dropped My M & M's.wav" WAVE
INDEX 01 00:00:00
TRACK 11 AUDIO
TITLE "My Babe"
PERFORMER "The Jesters"
INDEX 00 02:09:67
FILE "11 - The Jesters - My Babe.wav" WAVE
INDEX 01 00:00:00
TRACK 12 AUDIO
TITLE "Cadillac Man"
PERFORMER "The Jesters"
INDEX 00 02:14:53
FILE "12 - The Jesters - Cadillac Man.wav" WAVE
INDEX 01 00:00:00
TRACK 13 AUDIO
TITLE "Open The Door Richard"
PERFORMER "Billly Adams"
INDEX 00 02:16:55
FILE "13 - Billly Adams - Open The Door Richard.wav" WAVE
INDEX 01 00:00:00
TRACK 14 AUDIO
TITLE "Rock Me Baby"
PERFORMER "Billy Adams"
INDEX 00 02:30:18
FILE "14 - Billy Adams - Rock Me Baby.wav" WAVE
INDEX 01 00:00:00
TRACK 15 AUDIO
TITLE "Don't Knock what You Don't Understand"
PERFORMER "Dane Stinit"
INDEX 00 02:44:13
FILE "15 - Dane Stinit - Don't Knock what You Don't Understand.wav" WAVE
INDEX 01 00:00:00
TRACK 16 AUDIO
TITLE "Always On the Go"
PERFORMER "Dane Stinit"
INDEX 00 02:17:38
FILE "16 - Dane Stinit - Always On the Go.wav" WAVE
INDEX 01 00:00:00
TRACK 17 AUDIO
TITLE "Sherry's Lips"
PERFORMER "David Houston"
INDEX 00 01:49:27
FILE "17 - David Houston - Sherry's Lips.wav" WAVE
INDEX 01 00:00:00
TRACK 18 AUDIO
TITLE "Miss Brown"
PERFORMER "David Houston"
INDEX 00 02:18:27
FILE "18 - David Houston - Miss Brown.wav" WAVE
INDEX 01 00:00:00
TRACK 19 AUDIO
TITLE "No You For Me"
PERFORMER "The Climates"
INDEX 00 02:33:28
FILE "19 - The Climates - No You For Me.wav" WAVE
INDEX 01 00:00:00
TRACK 20 AUDIO
TITLE "Breaking Up Again"
PERFORMER "The Climates"
INDEX 00 02:23:27
FILE "20 - The Climates - Breaking Up Again.wav" WAVE
INDEX 01 00:00:00
TRACK 21 AUDIO
TITLE "Sweet Country Girl"
PERFORMER "Dane Stinit"
INDEX 00 02:39:63
FILE "21 - Dane Stinit - Sweet Country Girl.wav" WAVE
INDEX 01 00:00:00
TRACK 22 AUDIO
TITLE "The Muddy Ole River"
PERFORMER "Dane Stinit"
INDEX 00 02:10:30
FILE "22 - Dane Stinit - The Muddy Ole River.wav" WAVE
INDEX 01 00:00:00
TRACK 23 AUDIO
TITLE "I'm Gonna Move In the Room with the Lord"
PERFORMER "Brother James Anderson"
INDEX 00 01:57:40
FILE "23 - Brother James Anderson - I'm Gonna Move In the Room with the Lord.wav" WAVE
INDEX 01 00:00:00
TRACK 24 AUDIO
TITLE "My Soul Needs Resting"
PERFORMER "Brother James Anderson"
INDEX 00 02:37:60
FILE "24 - Brother James Anderson - My Soul Needs Resting.wav" WAVE
INDEX 01 00:00:00
TRACK 25 AUDIO
TITLE "I'm a Lover"
PERFORMER "Load of Mischief"
INDEX 00 02:21:72
FILE "25 - Load of Mischief - I'm a Lover.wav" WAVE
INDEX 01 00:00:00
TRACK 26 AUDIO
TITLE "Back In My Arms Again"
PERFORMER "Load of Mischoef"
INDEX 00 02:35:12
FILE "26 - Load of Mischoef - Back In My Arms Again.wav" WAVE
INDEX 01 00:00:00

CD3 (00:52:15)

1. Buddy Blake – You Pass Me By (02:33)
2. Buddy Blake – Please Convince Me (02:16)
3. Hayden Thompson – Love My Baby (02:13)
4. Hayden Thompson – One Broken Heart (02:27)
5. Barbara Pittman – Two Young Fools In Love (02:26)
6. Barbara Pittman – I'm Getting Better All The Time (02:55)
7. Bill Justis And His Orchestra – Raunchy (02:23)
8. Bill Justis And His Orchestra – The Midnite Man (02:10)
9. Johnny Carroll – That's The Way I Love (02:35)
10. Johnny Carroll – I'll Wait (02:32)
11. Cliff Thomas, Ed & Barbara – Treat Me Right (02:01)
12. Cliff Thomas, Ed & Barbara – I'm On My Way Home (02:12)
13. Bill Justis And His Orchestra – College Man (02:31)
14. Bill Justis And His Orchestra – The Stranger (02:34)
15. Wayne Powers – Point Of View (02:49)
16. Wayne Powers – My Love Song (02:13)
17. Bill Pinky & The Turks – After The Hop (02:08)
18. Bill Pinky & The Turks – Sally's Got A Sister (02:29)
19. Bill Justis And His Orchestra – Wild Rice (02:05)
20. Bill Justis And His Orchestra – Scroungie (01:58)
21. Carl McVoy – You Are My Sunshine (02:16)
22. Carl McVoy – Tootsie (02:29)

Лог создания рипа

Exact Audio Copy V0.99 prebeta 5 from 4. May 2009
EAC extraction logfile from 27. December 2009, 15:03
Various / The Complete Sun Singles - Volume 5 - Disc 3
Used drive : TSSTcorpCDDVDW SH-S223F Adapter: 3 ID: 0
Read mode : Secure
Utilize accurate stream : Yes
Defeat audio cache : Yes
Make use of C2 pointers : No
Read offset correction : 6
Overread into Lead-In and Lead-Out : No
Fill up missing offset samples with silence : Yes
Delete leading and trailing silent blocks : No
Null samples used in CRC calculations : Yes
Used interface : Native Win32 interface for Win NT & 2000
Gap handling : Appended to previous track
Used output format : User Defined Encoder
Selected bitrate : 192 kBit/s
Quality : High
Add ID3 tag : No
Command line compressor : C:\Program Files\Exact Audio Copy\Flac\flac.exe
Additional command line options : -V -8 -T "artist=%a" -T "title=%t" -T "album=%g" -T "date=%y" -T "tracknumber=%n" -T "genre=%m" %s
TOC of the extracted CD
Track | Start | Length | Start sector | End sector
---------------------------------------------------------
1 | 0:00.00 | 2:32.50 | 0 | 11449
2 | 2:32.50 | 2:16.20 | 11450 | 21669
3 | 4:48.70 | 2:12.67 | 21670 | 31636
4 | 7:01.62 | 2:27.25 | 31637 | 42686
5 | 9:29.12 | 2:25.53 | 42687 | 53614
6 | 11:54.65 | 2:55.27 | 53615 | 66766
7 | 14:50.17 | 2:23.33 | 66767 | 77524
8 | 17:13.50 | 2:10.12 | 77525 | 87286
9 | 19:23.62 | 2:35.05 | 87287 | 98916
10 | 21:58.67 | 2:31.58 | 98917 | 110299
11 | 24:30.50 | 2:00.45 | 110300 | 119344
12 | 26:31.20 | 2:11.40 | 119345 | 129209
13 | 28:42.60 | 2:31.02 | 129210 | 140536
14 | 31:13.62 | 2:34.23 | 140537 | 152109
15 | 33:48.10 | 2:48.50 | 152110 | 164759
16 | 36:36.60 | 2:13.37 | 164760 | 174771
17 | 38:50.22 | 2:08.00 | 174772 | 184371
18 | 40:58.22 | 2:29.35 | 184372 | 195581
19 | 43:27.57 | 2:05.20 | 195582 | 204976
20 | 45:33.02 | 1:57.63 | 204977 | 213814
21 | 47:30.65 | 2:16.15 | 213815 | 224029
22 | 49:47.05 | 2:29.05 | 224030 | 235209
Track 1
Filename Z:\EAC\Various - 1997 - The Complete Sun Singles - Volume 5 - Disc 3 [FLAC]\01 - You Pass Me By.wav
Pre-gap length 0:00:02.00
Peak level 88.2 %
Track quality 100.0 %
Test CRC 5E611463
Copy CRC 5E611463
Track not present in AccurateRip database
Copy OK
Track 2
Filename Z:\EAC\Various - 1997 - The Complete Sun Singles - Volume 5 - Disc 3 [FLAC]\02 - Please Convince Me.wav
Pre-gap length 0:00:03.50
Peak level 85.4 %
Track quality 100.0 %
Test CRC A63F88ED
Copy CRC A63F88ED
Track not present in AccurateRip database
Copy OK
Track 3
Filename Z:\EAC\Various - 1997 - The Complete Sun Singles - Volume 5 - Disc 3 [FLAC]\03 - Love My Baby.wav
Pre-gap length 0:00:02.77
Peak level 85.0 %
Track quality 100.0 %
Test CRC 5C614837
Copy CRC 5C614837
Track not present in AccurateRip database
Copy OK
Track 4
Filename Z:\EAC\Various - 1997 - The Complete Sun Singles - Volume 5 - Disc 3 [FLAC]\04 - One Broken Heart.wav
Pre-gap length 0:00:02.40
Peak level 85.7 %
Track quality 100.0 %
Test CRC 8C5F03F7
Copy CRC 8C5F03F7
Track not present in AccurateRip database
Copy OK
Track 5
Filename Z:\EAC\Various - 1997 - The Complete Sun Singles - Volume 5 - Disc 3 [FLAC]\05 - Two Young Fools In Love.wav
Pre-gap length 0:00:02.86
Peak level 87.5 %
Track quality 100.0 %
Test CRC 3DCFC836
Copy CRC 3DCFC836
Track not present in AccurateRip database
Copy OK
Track 6
Filename Z:\EAC\Various - 1997 - The Complete Sun Singles - Volume 5 - Disc 3 [FLAC]\06 - Im getting better all the time.wav
Pre-gap length 0:00:02.44
Peak level 87.6 %
Track quality 100.0 %
Test CRC C654C79B
Copy CRC C654C79B
Track not present in AccurateRip database
Copy OK
Track 7
Filename Z:\EAC\Various - 1997 - The Complete Sun Singles - Volume 5 - Disc 3 [FLAC]\07 - Raunchy.wav
Pre-gap length 0:00:04.56
Peak level 79.1 %
Track quality 99.9 %
Test CRC A2F6C4A8
Copy CRC A2F6C4A8
Track not present in AccurateRip database
Copy OK
Track 8
Filename Z:\EAC\Various - 1997 - The Complete Sun Singles - Volume 5 - Disc 3 [FLAC]\08 - The Midnite Man.wav
Pre-gap length 0:00:02.10
Peak level 84.9 %
Track quality 99.9 %
Test CRC FAEA78BE
Copy CRC FAEA78BE
Track not present in AccurateRip database
Copy OK
Track 9
Filename Z:\EAC\Various - 1997 - The Complete Sun Singles - Volume 5 - Disc 3 [FLAC]\09 - Thats The Way I love.wav
Pre-gap length 0:00:02.60
Peak level 84.5 %
Track quality 99.9 %
Test CRC F069709B
Copy CRC F069709B
Track not present in AccurateRip database
Copy OK
Track 10
Filename Z:\EAC\Various - 1997 - The Complete Sun Singles - Volume 5 - Disc 3 [FLAC]\10 - I'll Wait.wav
Pre-gap length 0:00:01.89
Peak level 81.4 %
Track quality 99.9 %
Test CRC 12B55432
Copy CRC 12B55432
Track not present in AccurateRip database
Copy OK
Track 11
Filename Z:\EAC\Various - 1997 - The Complete Sun Singles - Volume 5 - Disc 3 [FLAC]\11 - Treat Me Right.wav
Pre-gap length 0:00:02.17
Peak level 81.5 %
Track quality 100.0 %
Test CRC A3661BE8
Copy CRC A3661BE8
Track not present in AccurateRip database
Copy OK
Track 12
Filename Z:\EAC\Various - 1997 - The Complete Sun Singles - Volume 5 - Disc 3 [FLAC]\12 - Im On My Way Home.wav
Pre-gap length 0:00:01.93
Peak level 79.3 %
Track quality 100.0 %
Test CRC C16742C4
Copy CRC C16742C4
Track not present in AccurateRip database
Copy OK
Track 13
Filename Z:\EAC\Various - 1997 - The Complete Sun Singles - Volume 5 - Disc 3 [FLAC]\13 - College Man.wav
Pre-gap length 0:00:02.30
Peak level 77.4 %
Track quality 100.0 %
Test CRC 9154E4D3
Copy CRC 9154E4D3
Track not present in AccurateRip database
Copy OK
Track 14
Filename Z:\EAC\Various - 1997 - The Complete Sun Singles - Volume 5 - Disc 3 [FLAC]\14 - The Stranger.wav
Pre-gap length 0:00:03.00
Peak level 90.1 %
Track quality 100.0 %
Test CRC A66373B3
Copy CRC A66373B3
Track not present in AccurateRip database
Copy OK
Track 15
Filename Z:\EAC\Various - 1997 - The Complete Sun Singles - Volume 5 - Disc 3 [FLAC]\15 - Point Of View.wav
Pre-gap length 0:00:02.84
Peak level 83.8 %
Track quality 99.9 %
Test CRC F961273E
Copy CRC F961273E
Track not present in AccurateRip database
Copy OK
Track 16
Filename Z:\EAC\Various - 1997 - The Complete Sun Singles - Volume 5 - Disc 3 [FLAC]\16 - My Love Song.wav
Pre-gap length 0:00:03.46
Peak level 79.7 %
Track quality 99.9 %
Test CRC 31C7F6F5
Copy CRC 31C7F6F5
Track not present in AccurateRip database
Copy OK
Track 17
Filename Z:\EAC\Various - 1997 - The Complete Sun Singles - Volume 5 - Disc 3 [FLAC]\17 - After The Hop.wav
Pre-gap length 0:00:02.80
Peak level 82.6 %
Track quality 100.0 %
Test CRC BE934D2B
Copy CRC BE934D2B
Track not present in AccurateRip database
Copy OK
Track 18
Filename Z:\EAC\Various - 1997 - The Complete Sun Singles - Volume 5 - Disc 3 [FLAC]\18 - Sally's Got A Sister.wav
Pre-gap length 0:00:02.76
Peak level 83.7 %
Track quality 100.0 %
Test CRC 8EC31295
Copy CRC 8EC31295
Track not present in AccurateRip database
Copy OK
Track 19
Filename Z:\EAC\Various - 1997 - The Complete Sun Singles - Volume 5 - Disc 3 [FLAC]\19 - Wild Rice.wav
Pre-gap length 0:00:02.73
Peak level 86.1 %
Track quality 100.0 %
Test CRC 194E0A8A
Copy CRC 194E0A8A
Track not present in AccurateRip database
Copy OK
Track 20
Filename Z:\EAC\Various - 1997 - The Complete Sun Singles - Volume 5 - Disc 3 [FLAC]\20 - Scroungie.wav
Pre-gap length 0:00:02.82
Peak level 78.7 %
Track quality 100.0 %
Test CRC 6A9A2473
Copy CRC 6A9A2473
Track not present in AccurateRip database
Copy OK
Track 21
Filename Z:\EAC\Various - 1997 - The Complete Sun Singles - Volume 5 - Disc 3 [FLAC]\21 - You Are My Sunshine.wav
Pre-gap length 0:00:03.26
Peak level 82.5 %
Track quality 100.0 %
Test CRC 0197F749
Copy CRC 0197F749
Track not present in AccurateRip database
Copy OK
Track 22
Filename Z:\EAC\Various - 1997 - The Complete Sun Singles - Volume 5 - Disc 3 [FLAC]\22 - Tootsie.wav
Pre-gap length 0:00:03.10
Peak level 83.3 %
Track quality 100.0 %
Test CRC BF881D33
Copy CRC BF881D33
Track not present in AccurateRip database
Copy OK
None of the tracks are present in the AccurateRip database
No errors occurred
End of status report

Содержание индексной карты (.CUE)

REM GENRE "Rock & Roll"
REM DATE 1997
REM DISCID 2C0C4016
REM COMMENT "ExactAudioCopy v0.99pb5"
PERFORMER "Various"
TITLE "The Complete Sun Singles - Volume 5 - Disc 3"
FILE "01 - Buddy Blake - You Pass Me By.wav" WAVE
TRACK 01 AUDIO
TITLE "You Pass Me By"
PERFORMER "Buddy Blake"
INDEX 01 00:00:00
TRACK 02 AUDIO
TITLE "Please Convince Me"
PERFORMER "Buddy Blake"
INDEX 00 02:29:12
FILE "02 - Buddy Blake - Please Convince Me.wav" WAVE
INDEX 01 00:00:00
TRACK 03 AUDIO
TITLE "Love My Baby"
PERFORMER "Hayden Thompson"
INDEX 00 02:13:37
FILE "03 - Hayden Thompson - Love My Baby.wav" WAVE
INDEX 01 00:00:00
TRACK 04 AUDIO
TITLE "One Broken Heart"
PERFORMER "Hayden Thompson"
INDEX 00 02:10:37
FILE "04 - Hayden Thompson - One Broken Heart.wav" WAVE
INDEX 01 00:00:00
TRACK 05 AUDIO
TITLE "Two Young Fools In Love"
PERFORMER "Barbara Pittman"
INDEX 00 02:24:35
FILE "05 - Barbara Pittman - Two Young Fools In Love.wav" WAVE
INDEX 01 00:00:00
TRACK 06 AUDIO
TITLE "Im getting better all the time"
PERFORMER "Barbara Pittman"
INDEX 00 02:23:20
FILE "06 - Barbara Pittman - Im getting better all the time.wav" WAVE
INDEX 01 00:00:00
TRACK 07 AUDIO
TITLE "Raunchy"
PERFORMER "Bill Justis & His Orchestra"
INDEX 00 02:50:60
FILE "07 - Bill Justis & His Orchestra - Raunchy.wav" WAVE
INDEX 01 00:00:00
TRACK 08 AUDIO
TITLE "The Midnite Man"
PERFORMER "Bill Justis & His Orchestra"
INDEX 00 02:21:25
FILE "08 - Bill Justis & His Orchestra - The Midnite Man.wav" WAVE
INDEX 01 00:00:00
TRACK 09 AUDIO
TITLE "Thats The Way I love"
PERFORMER "Johnny Carroll"
INDEX 00 02:07:42
FILE "09 - Johnny Carroll - Thats The Way I love.wav" WAVE
INDEX 01 00:00:00
TRACK 10 AUDIO
TITLE "I'll Wait"
PERFORMER "Johnny Carroll"
INDEX 00 02:33:13
FILE "10 - Johnny Carroll - I'll Wait.wav" WAVE
INDEX 01 00:00:00
TRACK 11 AUDIO
TITLE "Treat Me Right"
PERFORMER "Cliff Thomas Ed & Barbara"
INDEX 00 02:29:45
FILE "11 - Cliff Thomas Ed & Barbara - Treat Me Right.wav" WAVE
INDEX 01 00:00:00
TRACK 12 AUDIO
TITLE "Im On My Way Home"
PERFORMER "Cliff Thomas Ed & Barbara"
INDEX 00 01:58:50
FILE "12 - Cliff Thomas Ed & Barbara - Im On My Way Home.wav" WAVE
INDEX 01 00:00:00
TRACK 13 AUDIO
TITLE "College Man"
PERFORMER "Bill Justis & His Orchestra"
INDEX 00 02:09:17
FILE "13 - Bill Justis & His Orchestra - College Man.wav" WAVE
INDEX 01 00:00:00
TRACK 14 AUDIO
TITLE "The Stranger"
PERFORMER "Bill Justis & His Orchestra"
INDEX 00 02:28:02
FILE "14 - Bill Justis & His Orchestra - The Stranger.wav" WAVE
INDEX 01 00:00:00
TRACK 15 AUDIO
TITLE "Point Of View"
PERFORMER "Wayne Powers"
INDEX 00 02:31:35
FILE "15 - Wayne Powers - Point Of View.wav" WAVE
INDEX 01 00:00:00
TRACK 16 AUDIO
TITLE "My Love Song"
PERFORMER "Wayne Powers"
INDEX 00 02:45:15
FILE "16 - Wayne Powers - My Love Song.wav" WAVE
INDEX 01 00:00:00
TRACK 17 AUDIO
TITLE "After The Hop"
PERFORMER "Bill Pinky & The Turks"
INDEX 00 02:10:52
FILE "17 - Bill Pinky & The Turks - After The Hop.wav" WAVE
INDEX 01 00:00:00
TRACK 18 AUDIO
TITLE "Sally's Got A Sister"
PERFORMER "Bill Pinky & The Turks"
INDEX 00 02:05:18
FILE "18 - Bill Pinky & The Turks - Sally's Got A Sister.wav" WAVE
INDEX 01 00:00:00
TRACK 19 AUDIO
TITLE "Wild Rice"
PERFORMER "Bill Justis & His Orchestra"
INDEX 00 02:26:55
FILE "19 - Bill Justis & His Orchestra - Wild Rice.wav" WAVE
INDEX 01 00:00:00
TRACK 20 AUDIO
TITLE "Scroungie"
PERFORMER "Bill Justis & His Orchestra"
INDEX 00 02:02:33
FILE "20 - Bill Justis & His Orchestra - Scroungie.wav" WAVE
INDEX 01 00:00:00
TRACK 21 AUDIO
TITLE "You Are My Sunshine"
PERFORMER "Carl McVoy"
INDEX 00 01:54:43
FILE "21 - Carl McVoy - You Are My Sunshine.wav" WAVE
INDEX 01 00:00:00
TRACK 22 AUDIO
TITLE "Tootsie"
PERFORMER "Carl McVoy"
INDEX 00 02:13:07
FILE "22 - Carl McVoy - Tootsie.wav" WAVE
INDEX 01 00:00:00

CD4 (01:13:53)

1. Barbara Pittman – Everlasting Love (02:00)
2. Barbara Pittman – Cold Cold Heart (02:37)
3. Ernie Barton – Stairway To Nowhere (02:17)
4. Ernie Barton – Raining The Blues (02:44)
5. Bill Justis And His Orchestra – Cattywampus (02:41)
6. Bill Justis And His Orchestra – Summer Holiday (02:07)
7. Lee Mitchell & The Curly Money Combo – The Frog (01:52)
8. Lee Mitchell & The Curly Money Combo – A Little Blue Bird Told Me (02:17)
9. Cliff Thomas, Ed & Barbara – Sorry I Lied (02:17)
10. Cliff Thomas, Ed & Barbara – Leave It To Me (02:03)
11. Charlie Rich – Whirlwind (02:08)
12. Charlie Rich – Philadelphia Baby (02:05)
13. Mickey Milan & The Bill Justice Orchestra – Somehow Without You (06:22:05)
14. Mickey Milan & The Bill Justice Orchestra – The Picture (02:28)
15. Ken Cook – Crazy Baby (02:37)
16. Ken Cook – I Was A Fool (02:25)
17. Bill Justis And His Orchestra – Bop Train (02:04)
18. Bill Justis And His Orchestra – String Of Pearls - Cha Hot Cha (02:30)
19. The Clement Travelers – The Minstrel Show (01:56)
20. The Clement Travelers – Three Little Guitars (01:39)
21. Jimmy Demopoulos – Hopeless Love (02:00)
22. Jimmy Demopoulos – If I Had My Way (02:49)
23. Cliff Thomas, Ed & Barbara – I'm The Only One (02:27)
24. Cliff Thomas, Ed & Barbara – Tidewind (01:45)

Лог создания рипа

Exact Audio Copy V0.99 prebeta 5 from 4. May 2009
EAC extraction logfile from 27. December 2009, 16:06
Various / The Complete Sun Singles - Volume 5 - Disc 4
Used drive : TSSTcorpCDDVDW SH-S223F Adapter: 3 ID: 0
Read mode : Secure
Utilize accurate stream : Yes
Defeat audio cache : Yes
Make use of C2 pointers : No
Read offset correction : 6
Overread into Lead-In and Lead-Out : No
Fill up missing offset samples with silence : Yes
Delete leading and trailing silent blocks : No
Null samples used in CRC calculations : Yes
Used interface : Native Win32 interface for Win NT & 2000
Gap handling : Appended to previous track
Used output format : User Defined Encoder
Selected bitrate : 192 kBit/s
Quality : High
Add ID3 tag : No
Command line compressor : C:\Program Files\Exact Audio Copy\Flac\flac.exe
Additional command line options : -V -8 -T "artist=%a" -T "title=%t" -T "album=%g" -T "date=%y" -T "tracknumber=%n" -T "genre=%m" %s
TOC of the extracted CD
Track | Start | Length | Start sector | End sector
---------------------------------------------------------
1 | 0:00.00 | 1:59.57 | 0 | 8981
2 | 1:59.57 | 2:37.10 | 8982 | 20766
3 | 4:36.67 | 2:17.05 | 20767 | 31046
4 | 6:53.72 | 2:44.28 | 31047 | 43374
5 | 9:38.25 | 2:40.50 | 43375 | 55424
6 | 12:19.00 | 2:06.65 | 55425 | 64939
7 | 14:25.65 | 1:51.57 | 64940 | 73321
8 | 16:17.47 | 2:16.50 | 73322 | 83571
9 | 18:34.22 | 2:17.08 | 83572 | 93854
10 | 20:51.30 | 2:03.20 | 93855 | 103099
11 | 22:54.50 | 2:07.70 | 103100 | 112694
12 | 25:02.45 | 2:05.15 | 112695 | 122084
13 | 27:07.60 | 2:04.57 | 122085 | 131441
14 | 29:12.42 | 2:28.33 | 131442 | 142574
15 | 31:41.00 | 2:37.10 | 142575 | 154359
16 | 34:18.10 | 2:25.30 | 154360 | 165264
17 | 36:43.40 | 2:03.47 | 165265 | 174536
18 | 38:47.12 | 2:30.05 | 174537 | 185791
19 | 41:17.17 | 1:56.08 | 185792 | 194499
20 | 43:13.25 | 1:38.65 | 194500 | 201914
21 | 44:52.15 | 2:00.22 | 201915 | 210936
22 | 46:52.37 | 2:48.68 | 210937 | 223604
23 | 49:41.30 | 2:27.17 | 223605 | 234646
24 | 52:08.47 | 1:45.20 | 234647 | 242541
Track 1
Filename Z:\EAC\Various - 1997 - The Complete Sun Singles - Volume 5 - Disc 4 [FLAC]\01 - Everlasting Love.wav
Pre-gap length 0:00:02.00
Peak level 83.4 %
Track quality 100.0 %
Test CRC 466EA47F
Copy CRC 466EA47F
Track not present in AccurateRip database
Copy OK
Track 2
Filename Z:\EAC\Various - 1997 - The Complete Sun Singles - Volume 5 - Disc 4 [FLAC]\02 - Cold Cold Heart.wav
Pre-gap length 0:00:03.24
Peak level 76.1 %
Track quality 100.0 %
Test CRC 1DEBCC45
Copy CRC 1DEBCC45
Track not present in AccurateRip database
Copy OK
Track 3
Filename Z:\EAC\Various - 1997 - The Complete Sun Singles - Volume 5 - Disc 4 [FLAC]\03 - Stairway To Nowhere.wav
Pre-gap length 0:00:03.10
Peak level 82.3 %
Track quality 100.0 %
Test CRC 512BC8B3
Copy CRC 512BC8B3
Track not present in AccurateRip database
Copy OK
Track 4
Filename Z:\EAC\Various - 1997 - The Complete Sun Singles - Volume 5 - Disc 4 [FLAC]\04 - Raining The Blues.wav
Pre-gap length 0:00:02.77
Peak level 83.6 %
Track quality 99.9 %
Test CRC 3CEB47E1
Copy CRC 3CEB47E1
Track not present in AccurateRip database
Copy OK
Track 5
Filename Z:\EAC\Various - 1997 - The Complete Sun Singles - Volume 5 - Disc 4 [FLAC]\05 - Cattywampus.wav
Pre-gap length 0:00:02.97
Peak level 85.6 %
Track quality 100.0 %
Test CRC 4196DDAE
Copy CRC 4196DDAE
Track not present in AccurateRip database
Copy OK
Track 6
Filename Z:\EAC\Various - 1997 - The Complete Sun Singles - Volume 5 - Disc 4 [FLAC]\06 - Summer Holiday.wav
Pre-gap length 0:00:02.50
Peak level 96.2 %
Track quality 100.0 %
Test CRC 322E8937
Copy CRC 322E8937
Track not present in AccurateRip database
Copy OK
Track 7
Filename Z:\EAC\Various - 1997 - The Complete Sun Singles - Volume 5 - Disc 4 [FLAC]\07 - The Frog (Instrumental).wav
Pre-gap length 0:00:03.37
Peak level 81.0 %
Track quality 100.0 %
Test CRC 4159F7EB
Copy CRC 4159F7EB
Track not present in AccurateRip database
Copy OK
Track 8
Filename Z:\EAC\Various - 1997 - The Complete Sun Singles - Volume 5 - Disc 4 [FLAC]\08 - A Little Blue Bird Told Me.wav
Pre-gap length 0:00:02.40
Peak level 82.7 %
Track quality 100.0 %
Test CRC 9B43F4F9
Copy CRC 9B43F4F9
Track not present in AccurateRip database
Copy OK
Track 9
Filename Z:\EAC\Various - 1997 - The Complete Sun Singles - Volume 5 - Disc 4 [FLAC]\09 - Sorry I Lied.wav
Pre-gap length 0:00:03.37
Peak level 86.6 %
Track quality 100.0 %
Test CRC 1D5C44F7
Copy CRC 1D5C44F7
Track not present in AccurateRip database
Copy OK
Track 10
Filename Z:\EAC\Various - 1997 - The Complete Sun Singles - Volume 5 - Disc 4 [FLAC]\10 - Leave it to me.wav
Pre-gap length 0:00:02.41
Peak level 82.0 %
Track quality 100.0 %
Test CRC 4302D95B
Copy CRC 4302D95B
Track not present in AccurateRip database
Copy OK
Track 11
Filename Z:\EAC\Various - 1997 - The Complete Sun Singles - Volume 5 - Disc 4 [FLAC]\11 - Whirlwind.wav
Pre-gap length 0:00:05.68
Peak level 85.4 %
Track quality 100.0 %
Test CRC 522E0BE4
Copy CRC 522E0BE4
Track not present in AccurateRip database
Copy OK
Track 12
Filename Z:\EAC\Various - 1997 - The Complete Sun Singles - Volume 5 - Disc 4 [FLAC]\12 - Philadelphia Baby.wav
Pre-gap length 0:00:02.04
Peak level 82.7 %
Track quality 99.9 %
Test CRC 609FBD63
Copy CRC 609FBD63
Track not present in AccurateRip database
Copy OK
Track 13
Filename Z:\EAC\Various - 1997 - The Complete Sun Singles - Volume 5 - Disc 4 [FLAC]\13 - Somehow Without You.wav
Pre-gap length 0:00:04.28
Peak level 79.0 %
Track quality 100.0 %
Test CRC FB51B406
Copy CRC FB51B406
Track not present in AccurateRip database
Copy OK
Track 14
Filename Z:\EAC\Various - 1997 - The Complete Sun Singles - Volume 5 - Disc 4 [FLAC]\14 - The Picture.wav
Pre-gap length 0:00:03.17
Peak level 92.5 %
Track quality 99.9 %
Test CRC 68028619
Copy CRC 68028619
Track not present in AccurateRip database
Copy OK
Track 15
Filename Z:\EAC\Various - 1997 - The Complete Sun Singles - Volume 5 - Disc 4 [FLAC]\15 - Crazy Baby.wav
Pre-gap length 0:00:02.97
Peak level 85.2 %
Track quality 100.0 %
Test CRC 8A9DF6BA
Copy CRC 8A9DF6BA
Track not present in AccurateRip database
Copy OK
Track 16
Filename Z:\EAC\Various - 1997 - The Complete Sun Singles - Volume 5 - Disc 4 [FLAC]\16 - I Was a Fool.wav
Pre-gap length 0:00:02.54
Peak level 84.2 %
Track quality 100.0 %
Test CRC F97226B6
Copy CRC F97226B6
Track not present in AccurateRip database
Copy OK
Track 17
Filename Z:\EAC\Various - 1997 - The Complete Sun Singles - Volume 5 - Disc 4 [FLAC]\17 - Bop Train.wav
Pre-gap length 0:00:01.88
Peak level 84.2 %
Track quality 100.0 %
Test CRC D49A456D
Copy CRC D49A456D
Track not present in AccurateRip database
Copy OK
Track 18
Filename Z:\EAC\Various - 1997 - The Complete Sun Singles - Volume 5 - Disc 4 [FLAC]\18 - String Of Pearls - Cha Hot Cha.wav
Pre-gap length 0:00:02.30
Peak level 85.6 %
Track quality 99.9 %
Test CRC 2C672E1F
Copy CRC 2C672E1F
Track not present in AccurateRip database
Copy OK
Track 19
Filename Z:\EAC\Various - 1997 - The Complete Sun Singles - Volume 5 - Disc 4 [FLAC]\19 - The Minstrel Show.wav
Pre-gap length 0:00:02.97
Peak level 91.7 %
Track quality 100.0 %
Test CRC 6B58E120
Copy CRC 6B58E120
Track not present in AccurateRip database
Copy OK
Track 20
Filename Z:\EAC\Various - 1997 - The Complete Sun Singles - Volume 5 - Disc 4 [FLAC]\20 - Three Little Guitars.wav
Pre-gap length 0:00:03.64
Peak level 92.1 %
Track quality 100.0 %
Test CRC 39CAB5B0
Copy CRC 39CAB5B0
Track not present in AccurateRip database
Copy OK
Track 21
Filename Z:\EAC\Various - 1997 - The Complete Sun Singles - Volume 5 - Disc 4 [FLAC]\21 - Hopeless Love.wav
Pre-gap length 0:00:04.50
Peak level 81.1 %
Track quality 100.0 %
Test CRC E82CCCD0
Copy CRC E82CCCD0
Track not present in AccurateRip database
Copy OK
Track 22
Filename Z:\EAC\Various - 1997 - The Complete Sun Singles - Volume 5 - Disc 4 [FLAC]\22 - If I Had My Way.wav
Pre-gap length 0:00:03.33
Peak level 80.7 %
Track quality 100.0 %
Test CRC 98CA2A46
Copy CRC 98CA2A46
Track not present in AccurateRip database
Copy OK
Track 23
Filename Z:\EAC\Various - 1997 - The Complete Sun Singles - Volume 5 - Disc 4 [FLAC]\23 - I'm The Only One.wav
Pre-gap length 0:00:01.84
Peak level 76.0 %
Track quality 100.0 %
Test CRC AB8BBF14
Copy CRC AB8BBF14
Track not present in AccurateRip database
Copy OK
Track 24
Filename Z:\EAC\Various - 1997 - The Complete Sun Singles - Volume 5 - Disc 4 [FLAC]\24 - Tidewind.wav
Pre-gap length 0:00:02.80
Peak level 82.4 %
Track quality 99.8 %
Test CRC D699D6AE
Copy CRC D699D6AE
Track not present in AccurateRip database
Copy OK
None of the tracks are present in the AccurateRip database
No errors occurred
End of status report

Содержание индексной карты (.CUE)

REM GENRE "Rock & Roll"
REM DATE 1997
REM DISCID 550CA118
REM COMMENT "ExactAudioCopy v0.99pb5"
PERFORMER "Various"
TITLE "The Complete Sun Singles - Volume 5 - Disc 4"
FILE "01 - Barbara Pittman & The Bill Justis Orchestra - Everlasting Love.wav" WAVE
TRACK 01 AUDIO
TITLE "Everlasting Love"
PERFORMER "Barbara Pittman & The Bill Justis Orchestra"
INDEX 01 00:00:00
TRACK 02 AUDIO
TITLE "Cold Cold Heart"
PERFORMER "Barbara Pittman & The Bill Justis Orchestra"
INDEX 00 01:56:39
FILE "02 - Barbara Pittman & The Bill Justis Orchestra - Cold Cold Heart.wav" WAVE
INDEX 01 00:00:00
TRACK 03 AUDIO
TITLE "Stairway To Nowhere"
PERFORMER "Ernie Barton"
INDEX 00 02:34:02
FILE "03 - Ernie Barton - Stairway To Nowhere.wav" WAVE
INDEX 01 00:00:00
TRACK 04 AUDIO
TITLE "Raining The Blues"
PERFORMER "Ernie Barton"
INDEX 00 02:14:22
FILE "04 - Ernie Barton - Raining The Blues.wav" WAVE
INDEX 01 00:00:00
TRACK 05 AUDIO
TITLE "Cattywampus"
PERFORMER "Bill Justis & His Orchestra"
INDEX 00 02:41:30
FILE "05 - Bill Justis & His Orchestra - Cattywampus.wav" WAVE
INDEX 01 00:00:00
TRACK 06 AUDIO
TITLE "Summer Holiday"
PERFORMER "Bill Justis & His Orchestra"
INDEX 00 02:38:12
FILE "06 - Bill Justis & His Orchestra - Summer Holiday.wav" WAVE
INDEX 01 00:00:00
TRACK 07 AUDIO
TITLE "The Frog (Instrumental)"
PERFORMER "Lee Mitchell & The Curly Money Combo"
INDEX 00 02:03:37
FILE "07 - Lee Mitchell & The Curly Money Combo - The Frog (Instrumental).wav" WAVE
INDEX 01 00:00:00
TRACK 08 AUDIO
TITLE "A Little Blue Bird Told Me"
PERFORMER "Lee Mitchell & The Curly Money Combo"
INDEX 00 01:49:27
FILE "08 - Lee Mitchell & The Curly Money Combo - A Little Blue Bird Told Me.wav" WAVE
INDEX 01 00:00:00
TRACK 09 AUDIO
TITLE "Sorry I Lied"
PERFORMER "Cliff Thomas Ed & Barbara"
INDEX 00 02:13:22
FILE "09 - Cliff Thomas Ed & Barbara - Sorry I Lied.wav" WAVE
INDEX 01 00:00:00
TRACK 10 AUDIO
TITLE "Leave it to me"
PERFORMER "Cliff Thomas Ed & Barbara"
INDEX 00 02:14:52
FILE "10 - Cliff Thomas Ed & Barbara - Leave it to me.wav" WAVE
INDEX 01 00:00:00
TRACK 11 AUDIO
TITLE "Whirlwind"
PERFORMER "Charlie Rich"
INDEX 00 01:57:44
FILE "11 - Charlie Rich - Whirlwind.wav" WAVE
INDEX 01 00:00:00
TRACK 12 AUDIO
TITLE "Philadelphia Baby"
PERFORMER "Charlie Rich"
INDEX 00 02:05:67
FILE "12 - Charlie Rich - Philadelphia Baby.wav" WAVE
INDEX 01 00:00:00
TRACK 13 AUDIO
TITLE "Somehow Without You"
PERFORMER "Mickey Milan with the Bill Justis Orchestra and the Montclairs"
INDEX 00 02:00:69
FILE "13 - Mickey Milan with the Bill Justis Orchestra and the Montclairs - Somehow Without You.wav" WAVE
INDEX 01 00:00:00
TRACK 14 AUDIO
TITLE "The Picture"
PERFORMER "Mickey Milan with the Bill Justis Orchestra and Chorus"
INDEX 00 02:01:44
FILE "14 - Mickey Milan with the Bill Justis Orchestra and Chorus - The Picture.wav" WAVE
INDEX 01 00:00:00
TRACK 15 AUDIO
TITLE "Crazy Baby"
PERFORMER "Ken Cook"
INDEX 00 02:25:35
FILE "15 - Ken Cook - Crazy Baby.wav" WAVE
INDEX 01 00:00:00
TRACK 16 AUDIO
TITLE "I Was a Fool"
PERFORMER "Ken Cook"
INDEX 00 02:34:44
FILE "16 - Ken Cook - I Was a Fool.wav" WAVE
INDEX 01 00:00:00
TRACK 17 AUDIO
TITLE "Bop Train"
PERFORMER "Bill Justis & His Orchestra"
INDEX 00 02:23:39
FILE "17 - Bill Justis & His Orchestra - Bop Train.wav" WAVE
INDEX 01 00:00:00
TRACK 18 AUDIO
TITLE "String Of Pearls - Cha Hot Cha"
PERFORMER "Bill Justis & His Orchestra"
INDEX 00 02:01:24
FILE "18 - Bill Justis & His Orchestra - String Of Pearls - Cha Hot Cha.wav" WAVE
INDEX 01 00:00:00
TRACK 19 AUDIO
TITLE "The Minstrel Show"
PERFORMER "The Clement Travellers"
INDEX 00 02:27:07
FILE "19 - The Clement Travellers - The Minstrel Show.wav" WAVE
INDEX 01 00:00:00
TRACK 20 AUDIO
TITLE "Three Little Guitars"
PERFORMER "The Clement Travellers"
INDEX 00 01:52:35
FILE "20 - The Clement Travellers - Three Little Guitars.wav" WAVE
INDEX 01 00:00:00
TRACK 21 AUDIO
TITLE "Hopeless Love"
PERFORMER "Jimmy Demopoulos"
INDEX 00 01:34:27
FILE "21 - Jimmy Demopoulos - Hopeless Love.wav" WAVE
INDEX 01 00:00:00
TRACK 22 AUDIO
TITLE "If I Had My Way"
PERFORMER "Jimmy Demopoulos"
INDEX 00 01:56:72
FILE "22 - Jimmy Demopoulos - If I Had My Way.wav" WAVE
INDEX 01 00:00:00
TRACK 23 AUDIO
TITLE "I'm The Only One"
PERFORMER "Cliff Thomas Ed & Barbara"
INDEX 00 02:47:05
FILE "23 - Cliff Thomas Ed & Barbara - I'm The Only One.wav" WAVE
INDEX 01 00:00:00
TRACK 24 AUDIO
TITLE "Tidewind"
PERFORMER "Cliff Thomas Ed & Barbara"
INDEX 00 02:24:32
FILE "24 - Cliff Thomas Ed & Barbara - Tidewind.wav" WAVE
INDEX 01 00:00:00
Профиль [ЛС]
Показать сообщения:    

Текущее время: 18-Окт 22:38

Часовой пояс: UTC ± 0



Вы не можете начинать темы
Вы не можете отвечать на сообщения
Вы не можете редактировать свои сообщения
Вы не можете удалять свои сообщения
Вы не можете голосовать в опросах
Вы не можете прикреплять файлы к сообщениям
Вы не можете скачивать файлы