Статистика раздачи
Размер:  1,37 GB   |    Зарегистрирован:  3 месяца 11 дней   |    Скачан:  0 раз
Сидов:  144  [  0 KB/s  ]   Личеров:  4  [  0 KB/s  ]  
 
   
 
 

lopster ®

Пол:
Не указан
Стаж:
3 месяца 11 дней
Сообщений:
612

Ура! Каникулы!- Жанр: комедия, семейный, детский
Год выпуска: 2016
Продолжительность: 01:34:41-Режиссёр: Максим Демченко-В ролях: Сергей Маркеев, Диана Милютина, Марьяна Смирнова, Варвара Расторгина, Анна Ковальчук, В. Коваленко, Ю. Кудояр, Д. Лысенков-Описание: Ура! Зимние каникулы! Шестиклассник Паша вместе с семьей отправляется на горнолыжный курорт, Никто не мог предположить, что именно здесь скрываются похитители старинного ожерелья царицы Тамары… Развязка этого веселого детектива наступит под бой курантов в самый канун Нового года.-Сэмпл: http://multi-up.com/1137315
Качество видео: WEB-DLRip
Формат видео: AVI
Видео: 720x304 (2.35:1), 25.000 fps, XviD, 1677 Kbps
Аудио: 48 kHz, AC3 Dolby Digital, 3/2 (L,C,R,l,r) + LFE ch, 384 Kbps | iTunes

MediaInfo

General
Complete name : Downloads\Yra.Kanikyli.2016.O.WEB-DLRip.Rustorrents.avi
Format : AVI
Format/Info : Audio Video Interleave
File size : 1.37 GiB
Duration : 1h 34mn
Overall bit rate : 2 071 Kbps
Writing application : VirtualDubMod 1.5.10.3 | www.virtualdub-fr.org || (build 2550/release)
Video #0
ID : 0
Format : MPEG-4 Visual
Format profile : Advanced Simple@L5
Format settings, BVOP : 2
Format settings, QPel : No
Format settings, GMC : No warppoints
Format settings, Matrix : Custom
Codec ID : XVID
Codec ID/Hint : XviD
Duration : 1h 34mn
Bit rate : 1 677 Kbps
Width : 720 pixels
Height : 304 pixels
Display aspect ratio : 2.35:1
Frame rate : 25.000 fps
Color space : YUV
Chroma subsampling : 4:2:0
Bit depth : 8 bits
Scan type : Progressive
Compression mode : Lossy
Bits/(Pixel*Frame) : 0.307
Stream size : 1.11 GiB (81%)
Writing library : XviD 1.2.1 (UTC 2008-12-04)
Audio #1
ID : 1
Format : AC-3
Format/Info : Audio Coding 3
Mode extension : CM (complete main)
Format settings, Endianness : Big
Codec ID : 2000
Duration : 1h 34mn
Bit rate mode : Constant
Bit rate : 384 Kbps
Channel(s) : 6 channels
Channel positions : Front: L C R, Side: L R, LFE
Sampling rate : 48.0 KHz
Bit depth : 16 bits
Compression mode : Lossy
Stream size : 260 MiB (19%)
Alignment : Split accross interleaves
Interleave, duration : 40 ms (1.00 video frame)
Interleave, preload duration : 500 ms

Скриншот c названием фильма

Скриншоты

[cybertorrent.ru].t157.torrent 
Торрент: Зарегистрирован [ 2018-02-15 13:57 ] · 22E72F3A7C8E4D45C631BF91DA0630944A88A115

Скачать .torrent

Скачать

14 KB

Статус: проверено
Скачан: 0 раз
Размер: 1,37 GB
Профиль [ЛС]
Показать сообщения:    

Текущее время: 27-Май 01:31

Часовой пояс: UTC ± 0



Вы не можете начинать темы
Вы не можете отвечать на сообщения
Вы не можете редактировать свои сообщения
Вы не можете удалять свои сообщения
Вы не можете голосовать в опросах
Вы не можете прикреплять файлы к сообщениям
Вы можете скачивать файлы